<?xml version="1.0" standalone="no"?>
<!DOCTYPE svg PUBLIC "-//W3C//DTD SVG 1.1//EN" "http://www.w3.org/Graphics/SVG/1.1/DTD/svg11.dtd">
<svg xmlns="http://www.w3.org/2000/svg">
<metadata>Copyright (C) 2020 by original authors @ fontello.com</metadata>
<defs>
<font id="novaicons" horiz-adv-x="1000" >
<font-face font-family="novaicons" font-weight="400" font-stretch="normal" units-per-em="1000" ascent="850" descent="-150" />
<missing-glyph horiz-adv-x="1000" />
<glyph glyph-name="mail-2" unicode="&#xe800;" d="M467 366l-449 210 0 109 893 0 0-109z m0-123l444 210 0-437-893 0 0 438z" horiz-adv-x="928" />

<glyph glyph-name="b-dribbble" unicode="&#xe801;" d="M571 13q-23 134-78 278h-1l-1-1q-9-3-24-9t-56-27-77-46-73-64-57-82l-9 6q103-84 234-84 73 0 142 29z m-103 339q-11 27-29 62-174-52-376-52 0-4 0-12 0-69 24-132t69-112q28 49 69 93t80 69 73 45 55 27l21 7q2 1 7 2t7 3z m-59 118q-67 119-137 211-77-36-130-104t-72-152q169 0 339 45z m381-178q-117 33-228 16 49-133 71-262 62 42 104 106t53 140z m-449 414q-1 0-1-1 0 1 1 1z m329-81q-103 91-241 91-43 0-87-10 73-95 137-214 39 15 73 34t54 34 36 32 21 23z m125-271q-2 129-83 229l-1-1q-5-7-11-13t-24-25-40-34-55-36-74-36q14-30 25-53 1-3 3-10t5-9q20 2 41 4t41 1 39-1 35-2 32-3 27-4 20-3 14-3z m62-4q0-117-57-215t-156-156-215-58-216 58-155 156-58 215 58 215 155 156 216 58 215-58 156-156 57-215z" horiz-adv-x="857.1" />

<glyph glyph-name="b-vkontakte" unicode="&#xe802;" d="M1070 560q13-36-84-164-13-18-36-48-22-28-31-40t-17-27-7-24 8-19 18-24 32-30q2-1 2-2 79-73 107-123 2-3 4-7t4-15-1-19-14-15-33-7l-142-3q-14-2-32 3t-29 13l-11 6q-17 12-39 36t-38 43-34 33-32 8q-1 0-4-2t-10-8-12-16-9-29-4-44q0-8-2-15t-4-10l-2-3q-10-11-30-12h-64q-40-3-81 9t-74 29-57 37-40 32l-14 14q-5 5-15 17t-40 50-59 85-68 117-73 152q-4 9-4 15t2 9l2 3q9 11 32 11l153 1q7-1 13-3t9-5l3-2q9-6 13-18 11-28 26-57t23-46l9-16q16-34 31-58t27-38 23-22 19-8 15 3q1 1 3 3t7 12 7 26 5 46 0 69q-1 23-5 41t-7 26l-4 6q-14 19-47 24-8 2 3 14 8 10 21 17 29 14 133 13 46-1 75-7 12-3 19-8t12-13 5-18 2-25 0-31-2-40 0-46q0-6-1-23t0-27 2-22 6-22 13-14q4-1 9-2t15 6 21 19 29 38 38 60q33 58 60 125 2 6 5 10t6 6l3 2 2 1t8 2 11 0l160 1q22 3 36-1t17-10z" horiz-adv-x="1071.4" />

<glyph glyph-name="b-line" unicode="&#xe803;" d="M531 451v-139c0-3-2-6-6-6h-22c-2 0-4 1-5 3l-64 86v-83c0-3-3-6-6-6h-22c-4 0-7 3-7 6v139c0 4 3 6 7 6h22c2 0 4-1 5-2l64-86v82c0 4 2 6 6 6h22c4 0 6-2 6-6z m-160 6h-22c-3 0-6-2-6-6v-139c0-3 3-6 6-6h22c4 0 7 3 7 6v139c0 4-3 6-7 6z m-53-116h-61v110c0 4-3 6-6 6h-23c-3 0-6-2-6-6v-139c0-1 1-3 2-4 1-1 2-2 4-2h89c4 0 7 3 7 7v22c0 3-3 6-6 6z m331 116h-90c-3 0-6-2-6-6v-139c0-3 3-6 6-6h90c3 0 6 3 6 6v23c0 3-3 6-6 6h-61v23h61c3 0 6 3 6 7v22c0 4-3 6-6 6h-61v24h61c3 0 6 2 6 6v22c0 4-3 6-6 6z m226 171v-557c0-88-72-159-160-159h-557c-87 1-158 73-158 160v557c0 88 72 159 160 159h557c87-1 158-72 158-160z m-120-239c0 142-143 258-319 258-175 0-318-116-318-258 0-128 113-235 266-256 37-8 33-21 25-71-2-8-7-32 27-18 34 15 184 108 251 185 46 51 68 102 68 160z" horiz-adv-x="875" />

<glyph glyph-name="b-twitter-squared" unicode="&#xe804;" d="M714 510q-31-14-67-19 38 22 52 65-37-21-75-28-34 36-85 36-49 0-83-34t-35-83q0-16 3-27-72 4-135 37t-107 86q-16-28-16-59 0-64 51-98-27 1-56 15v-1q0-42 28-75t68-40q-16-5-28-5-7 0-22 3 12-36 42-59t67-23q-64-50-145-50-15 0-28 2 82-53 180-53 62 0 117 20t94 53 67 76 42 91 13 94q0 10 0 15 35 25 58 61z m143 108v-536q0-66-47-113t-114-48h-535q-67 0-114 48t-47 113v536q0 66 47 113t114 48h535q67 0 114-48t47-113z" horiz-adv-x="857.1" />

<glyph glyph-name="b-yahoo-1" unicode="&#xe805;" d="M0 641l6-19q4-6 8-10t5-5l2-2 19-10 111 0 287-344q11-12 11-25l0-192q0-8-2-12t-6-5l-3 0q-112 0-142-3-10 0-10-9l0-55 516 0 0 57q0 3-2 5t-5 2l-146 0q-9 0-9 15l0 202q-1 3 2 7t5 7l3 3q11 11 264 249l133 0q9 0 18 7l17 19q6 7 6 18l0 14q-1 3-3 5t-3 1l-438 0-7-6q-1-6 2-12t5-10l2-4 23-23 18-7 115 0-207-195-228 291 41 0q13-1 22 4l68 21q1 0 3 1t5 5 2 9l0 14q0 3-2 5t-4 2l-492 0q-8-1-10-7l0-8z m1190 109l185-7-83-567-61 3z m13-763l4 110 110-4-4-110z" horiz-adv-x="1375" />

<glyph glyph-name="b-skype-outline" unicode="&#xe806;" d="M633-31q82 0 141 62t60 146q0 45-21 94 7 39 7 76 0 149-101 254-100 104-245 104-31 0-60-7-50 33-109 33-84 0-142-61t-59-145q0-59 29-107-8-37-8-71 0-147 103-254 101-105 246-105 17 0 64 6 42-25 95-25z m-365 277q0 20 14 34t36 13q36 0 51-43 5-5 21-37 23-31 79-31 39 0 67 16t29 48q0 14-4 24t-18 16-19 10-26 9-24 6q-20 6-23 6-52 11-92 29-34 14-58 43t-23 72q0 69 55 103t137 34q88 0 140-41 44-41 44-79 0-20-15-35t-35-16q-14 0-24 6t-14 12-13 21q-23 54-89 54-33 0-58-14t-25-35q0-44 105-61 10-2 77-20 75-27 100-72 12-26 12-63 0-75-57-115t-145-39q-130 0-183 80-22 35-22 65z m37 589q68 0 126-28 28 3 43 3 187 0 320-137 131-137 131-326 0-20-5-65 18-52 18-105 0-127-89-219-90-92-216-92-62 0-113 21-19-3-46-3-188 0-321 137-133 136-133 326 0 26 4 55-24 55-24 123 0 127 88 217 90 93 217 93z" horiz-adv-x="938" />

<glyph glyph-name="globe" unicode="&#xe807;" d="M0 366q0 201 142 342t342 142 343-142 142-342-142-343-343-142-342 142-142 343z m63-16q7-166 125-283 52 37 109 60-43 106-47 223l-187 0z m0 31l187 0q4 104 37 196-62 25-117 68-102-113-107-264z m128 287q51-39 108-62 43 101 117 176-131-22-225-114z m20-623q88-76 205-95-64 64-105 148-53-19-100-53z m70 305q4-111 45-213 69 22 143 26l0 187-188 0z m0 31l188 0 0 157q-78 3-153 29-31-88-35-186z m47 215q69-23 141-27l0 218-2 0q-90-76-139-191z m12-486q49-100 127-166l2 0 0 187q-69-4-129-21z m160-166l2 0q78 66 127 166-61 17-129 21l0-187z m0 219q74-4 143-26 41 102 45 213l-188 0 0-187z m0 218l188 0q-4 98-36 186-74-26-152-29l0-157z m0 188q72 4 141 27-49 115-139 191l-2 0 0-218z m53-619q117 19 205 95-47 34-100 53-41-84-105-148z m0 832q74-75 117-176 57 23 107 62-93 92-224 114z m119-655q57-23 109-60 117 117 125 283l-187 0q-4-117-47-223z m10 450q33-92 37-196l187 0q-6 151-107 264-55-43-117-68z" horiz-adv-x="969" />

<glyph glyph-name="shield" unicode="&#xe808;" d="M84 848c-21-78-33-162-33-250 0-305 340-568 408-617l4-2 4 2c68 49 408 312 408 617 0 88-12 172-35 250l-2 6-92-37c-27-12-56-18-88-18-31 0-60 6-88 18l-107 45-107-45c-30-12-59-18-88-18-32 0-61 6-90 18l-92 37z m365-920c-17 12-447 303-447 670 0 98 14 190 39 277 6 18 24 32 43 32 6 0 10-2 16-4l97-39c22-10 45-14 71-14 23 0 47 4 68 14l109 45c6 2 12 2 18 2 6 0 12 0 16-2l109-45c23-10 47-14 70-14 24 0 47 4 71 14l95 39c6 2 12 4 18 4 19 0 35-14 41-32 27-87 41-181 41-277 0-367-430-658-447-670l-14-10z m20 363l-119 190c-8 12-6 27 6 35 11 8 25 6 33-6l80-127 107 174c8 12 24 14 33 6 12-8 14-23 8-35z" horiz-adv-x="1000" />

<glyph glyph-name="phone-call" unicode="&#xe809;" d="M941 141l-158 158c-23 26-62 26-88 0l-140-140-309 308 143 141c23 23 23 62 0 88l-160 158c-24 25-63 25-86 0l-143-141 0 0c0-441 359-801 801-801l140 141c26 24 26 63 0 88z m59 252l-131 0c0 215-174 389-388 389l0 131c287 0 519-233 519-520z m-240 39l-119 0c0 66-55 121-121 121l0 119c132 0 240-107 240-240z" horiz-adv-x="1000" />

<glyph glyph-name="menu-6" unicode="&#xe80a;" d="M959 497l-918 0c-23 0-41-18-41-43l0-82c0-26 18-43 41-43l918 0c23 0 41 17 41 43l0 82c0 25-18 43-41 43z m0 332l-918 0c-23 0-41-16-41-41l0-84c0-24 18-41 41-41l918 0c23 0 41 17 41 41l0 84c0 25-18 41-41 41z m0-666l-918 0c-23 0-41-18-41-41l0-84c0-26 18-42 41-42l918 0c23 0 41 16 41 42l0 84c0 23-18 41-41 41z" horiz-adv-x="1000" />

<glyph glyph-name="support248" unicode="&#xe80b;" d="M107 526l-42 6c33 220 218 381 437 381 219 0 402-161 438-381l-45-6c-32 197-196 342-393 342-197 0-363-145-395-342m-62-207l62 0 0 217-62 0z m-45-43l152 0 0 303-152 0z m893 43l62 0 0 217-62 0z m-45-43l152 0 0 303-152 0z m-348-231l92 0 0 37-92 0z m-45-43l182 0 0 121-182 0z m-121 276c0-2 0-6-2-8 0-2 0-4 0-6 0 0-2-2-2-2 0 0-2-2-2-2l-103 0c-4 0-4 2-6 2-2 0-4 0-4 2-2 2-2 4-2 6 0 2 0 6 0 8 0 4 0 8 0 10 0 2 0 5 2 7 0 2 0 4 2 6 2 2 2 4 4 6l31 39c8 6 12 14 16 20 4 6 7 11 9 17 2 4 4 10 4 14 0 4 2 8 2 12 0 4-2 7-2 9-2 4-2 6-4 10-2 2-5 4-7 4-4 2-6 2-10 2-6 0-12 0-16-2-4-2-8-2-10-6-3-2-5-2-9-4-2-2-4-4-4-4-2 0-2 2-2 2-2 0-2 2-2 4 0 0 0 2 0 6-2 2-2 6-2 8 0 4 0 6 0 8 2 0 2 2 2 4 0 0 0 2 0 2 2 2 2 2 4 4 0 1 2 3 6 5 2 2 5 4 11 6 4 2 10 2 14 4 6 2 12 2 18 2 9 0 17-2 25-4 6-2 12-6 18-12 3-3 7-9 9-17 2-6 4-14 4-22 0-5 0-13-2-19 0-8-4-14-6-22-3-7-9-15-15-25-6-10-16-20-26-31l-21-26 70 0c2 0 2 0 4-2 0 0 2 0 2-2 0-1 0-3 0-5 2-2 2-4 2-8m117 158l0 0-54-96 54 0z m65-113c0-6-2-10-2-14-2-2-2-4-4-4l-20 0 0-37c0-2 0-2 0-4 0 0-2 0-4-2-2 0-4 0-5 0-2-2-6-2-10-2-4 0-8 0-10 2-2 0-4 0-6 0-2 2-2 2-4 2 0 2 0 2 0 4l0 37-78 0c-2 0-4 0-4 2-2 0-2 0-4 2 0 2 0 4-2 6 0 2 0 6 0 10 0 4 0 6 0 9 0 2 2 4 2 6 0 2 0 4 2 6 0 2 0 4 2 6l63 115c2 2 2 2 4 2 0 2 2 2 4 2 3 2 5 2 9 2 4 0 8 0 12 0 6 0 10 0 14 0 4 0 7-2 9-2 2 0 4-2 6-2 0 0 0-2 0-4l0-125 20 0c0 0 2-2 4-4 0-4 2-7 2-13z m35-86c0 0-2-2-2-2 0-2-2-2-4-2 0-2-2-2-4-2-2 0-6 0-8 0-4 0-8 0-10 0-1 0-3 2-5 2-2 2-2 2-2 4 0 0 0 2 0 4l86 256c0 1 0 1 2 3 0 0 2 0 2 2 1 0 3 0 5 0 2 0 4 2 8 2 4 0 8-2 10-2 2 0 4 0 6-2 0 0 2-2 2-2 0-1 0-3 0-5z m236 219c0-4 0-6 0-8 0-4 0-6 0-8 0-2-2-4-2-6 0-2 0-4-2-6l-58-160c0-2-2-2-2-4-2 0-2-2-4-2-2 0-4 0-6 0-2-2-6-2-10-2-4 0-8 2-12 2-1 0-3 0-5 2-2 0-2 2-2 2 0 2 0 4 0 6l64 164-76 0c-2 0-2 2-4 4 0 4-2 8-2 16 0 1 0 5 2 7 0 2 0 4 0 6 0 2 2 2 2 4 0 0 2 0 2 0l107 0c2 0 2 0 4 0 2 0 2-2 2-4 2 0 2-2 2-4 0-4 0-6 0-9m-174-467l-7 41c125 19 234 93 294 201l40-20c-67-119-188-201-327-222" horiz-adv-x="1000" />

<glyph glyph-name="f-comment-1" unicode="&#xe80c;" d="M1000 454c0 230-225 418-500 418-275 0-500-188-500-418 0-229 225-416 500-416 41 0 84 3 125 11l232-92c6 0 10-4 18-4 8 0 18 4 25 10 12 8 16 24 16 37l-19 196c66 74 103 166 103 258z m-416-125l-293 0 0 84 293 0z m125 168l-418 0 0 82 418 0z" horiz-adv-x="1000" />

<glyph glyph-name="dot-3" unicode="&#xe80d;" d="M110 460q46 0 78-32t32-78q0-44-32-77t-78-33-78 33-32 77q0 46 32 78t78 32z m350 0q46 0 78-32t32-78q0-44-33-77t-77-33-77 33-33 77q0 46 32 78t78 32z m350 0q46 0 78-32t32-78q0-44-32-77t-78-33-78 33-32 77q0 46 32 78t78 32z" horiz-adv-x="920" />

<glyph glyph-name="mail-1" unicode="&#xe80e;" d="M580 306l258-267-789 0 259 264 135-127z m-517 355l760 0-380-362z m566-309l257 242 0-508z m-629-266l0 508 259-243z" horiz-adv-x="886" />

<glyph glyph-name="envato" unicode="&#xe8bc;" d="M736 806c44-20 220-400 68-728-120-264-428-264-584-172-132 80-336 328-112 636 8 12 32 12 28-24-4-24-36-204 24-280 28-40 36-12 36-12s0 260 200 456c128 120 308 140 340 124z" horiz-adv-x="880" />

<glyph glyph-name="letter-1" unicode="&#xe8be;" d="M670 220a115 115 0 0 0-70-20 115 115 0 0 0-70 20l-530 285v-505a150 150 0 0 1 150-150h900a150 150 0 0 1 150 150v505l-530-285z m380 630h-900a150 150 0 0 1-150-150v-50a53 53 0 0 1 25-45l550-300a45 45 0 0 1 25-5 45 45 0 0 1 25 5l550 300a53 53 0 0 1 25 45v50a150 150 0 0 1-150 150z" horiz-adv-x="1200" />

<glyph glyph-name="circle-1" unicode="&#xe8bf;" d="M500 850c-276 0-500-224-500-500s224-500 500-500 500 224 500 500-224 500-500 500z m279-808c-28 82-104 141-196 141h-166c-92 0-168-59-196-141-84 76-138 186-138 308 0 230 187 417 417 417s417-187 417-417c0-122-54-232-138-308z m-263 615c-89 0-161-78-161-173v-43c0-95 72-172 161-172s161 77 161 172v43c0 95-72 173-161 173z" horiz-adv-x="1000" />

<glyph glyph-name="bag-2" unicode="&#xe8c4;" d="M84 595l-84-708c-1-8 2-17 8-23 5-6 13-10 22-10h940c9 0 17 4 22 10 6 6 9 15 8 23l-84 708c-2 15-15 26-30 26h-135c-15 127-122 225-253 225s-238-98-253-225h-131c-15 0-28-11-30-26z m414 191c98 0 178-72 193-165h-385c15 93 95 165 192 165z m-225-225h450 136l77-647h-872l77 647h132z" horiz-adv-x="1000" />

<glyph glyph-name="bag-3" unicode="&#xe8c6;" d="M37 466l-37-498c0-61 41-118 98-118l780 0c61 0 102 53 102 118l-41 494c-8 62-61 123-123 123l-134 0c0 187-65 265-192 265-127 0-188-78-188-265l-139 0c-65 0-126-70-126-119z m453 339c95 0 147-57 147-220l-290 0c0 163 48 220 143 220z m404-359c8-49 38-446 41-478 1-16-13-73-57-73-172 0-747 0-776 0-28 0-60 45-57 81 4 54 31 388 37 466 4 57 45 98 102 98 57 0 526 0 596 0 85 0 110-70 114-94z" horiz-adv-x="980" />

<glyph glyph-name="ic_mail_outline_24px" unicode="&#xea02;" d="M833 683h-666c-46 0-83-37-83-83l-1-500c0-46 38-83 84-83h666c46 0 84 37 84 83v500c0 46-38 83-84 83z m0-583h-666v417l333-209 333 209v-417z m-333 292l-333 208h666l-333-208z" horiz-adv-x="1000" />

<glyph glyph-name="ic_compare_arrows_24px" unicode="&#xea03;" d="M375 267h-292v-84h292v-125l167 167-167 167v-125z m250 41v125h292v84h-292v125l-167-167 167-167z" horiz-adv-x="1000" />

<glyph glyph-name="ic_compare_24px" unicode="&#xea04;" d="M417 725h-209c-45 0-83-37-83-83v-584c0-45 38-83 83-83h209v-83h83v916h-83v-83z m0-625h-209l209 250v-250z m375 625h-209v-83h209v-542l-209 250v-375h209c46 0 83 38 83 83v584c0 46-37 83-83 83z" horiz-adv-x="1000" />

<glyph glyph-name="ic_share_24px" unicode="&#xea05;" d="M750 180c-32 0-60-12-82-32l-297 173c2 9 4 19 4 29s-2 20-4 29l294 171c23-20 52-33 85-33 69 0 125 56 125 125s-56 125-125 125-125-56-125-125c0-10 2-20 4-29l-294-172c-22 21-52 34-85 34-69 0-125-56-125-125s56-125 125-125c33 0 63 13 85 34l297-174c-2-8-4-17-4-27 0-67 55-121 122-121 67 0 122 54 122 121s-55 122-122 122z" horiz-adv-x="1000" />

<glyph glyph-name="bath-tub-1" unicode="&#xea06;" d="M792 663a188 188 0 0 1-375 0v-63h83v63a104 104 0 0 0 208 0v-313h-708v-167a209 209 0 0 1 208-208v-125h84v125h416v-125h84v125a209 209 0 0 1 208 208v167h-208z" horiz-adv-x="1000" />

<glyph glyph-name="shopping-cart-1" unicode="&#xea07;" d="M167-46a104 104 0 0 1 208 0 104 104 0 0 1-208 0m541 0a104 104 0 0 1 209 0 104 104 0 0 1-209 0m125 188h-583c-21 0-38 15-41 36l-79 589h-130v83h167c21 0 38-15 41-36l23-172h727c14 0 26-6 34-17 8-11 10-24 6-37l-125-417c-5-17-21-29-40-29z" horiz-adv-x="1000" />

<glyph glyph-name="contrast" unicode="&#xea08;" d="M750 392l-208 0 0-84 208 0 0-166 250 208-250 208z m-292 0l-208 0 0 166-250-208 250-208 0 166 208 0z" horiz-adv-x="1000" />

<glyph glyph-name="heart-1" unicode="&#xea09;" d="M691 767a269 269 0 0 1-191-81 267 267 0 0 1-458-186c0-243 416-585 434-600a38 38 0 0 1 48 0c18 15 434 357 434 600a267 267 0 0 1-267 267z" horiz-adv-x="1000" />

<glyph glyph-name="sort-tool" unicode="&#xea0a;" d="M833 517h-666c-23 0-42-19-42-42s19-42 42-42h666c23 0 42 19 42 42s-19 42-42 42z m125 250h-916c-23 0-42-19-42-42s19-42 42-42h916c23 0 42 19 42 42s-19 42-42 42z m-250-500h-416c-23 0-42-19-42-42s19-42 42-42h416c23 0 42 19 42 42s-19 42-42 42z m-125-250h-166c-23 0-42-19-42-42s19-42 42-42h166c23 0 42 19 42 42s-19 42-42 42z" horiz-adv-x="1000" />

<glyph glyph-name="list-bullet-1" unicode="&#xea0b;" d="M0 683a83 83 0 0 1 167 0 83 83 0 0 1-167 0m0-333a83 83 0 0 1 167 0 83 83 0 0 1-167 0m0-333a83 83 0 0 1 167 0 83 83 0 0 1-167 0m958 625h-625c-23 0-41 18-41 41s18 42 41 42h625c23 0 42-19 42-42s-19-41-42-41z m0-334h-625c-23 0-41 19-41 42s18 42 41 42h625c23 0 42-19 42-42s-19-42-42-42z m0-333h-625c-23 0-41 19-41 42s18 41 41 41h625c23 0 42-18 42-41s-19-42-42-42z" horiz-adv-x="1000" />

<glyph glyph-name="menu-8-1" unicode="&#xea0c;" d="M958 308h-916c-25 0-42 17-42 42s17 42 42 42h916c25 0 42-17 42-42s-17-42-42-42z m0 292h-916c-25 0-42 17-42 42s17 41 42 41h916c25 0 42-16 42-41s-17-42-42-42z m0-583h-916c-25 0-42 16-42 41s17 42 42 42h916c25 0 42-17 42-42s-17-41-42-41z" horiz-adv-x="1000" />

<glyph glyph-name="menu-4-1" unicode="&#xea0d;" d="M958 308h-916c-23 0-42 19-42 42s19 42 42 42h916c23 0 42-19 42-42s-19-42-42-42z m0 292h-916c-23 0-42 19-42 42s19 41 42 41h916c23 0 42-18 42-41s-19-42-42-42z m-458-583h-458c-23 0-42 18-42 41s19 42 42 42h458c23 0 42-19 42-42s-19-41-42-41z" horiz-adv-x="1000" />

<glyph glyph-name="menu-3-1" unicode="&#xea0e;" d="M958 308h-916c-23 0-42 19-42 42s19 42 42 42h916c23 0 42-19 42-42s-19-42-42-42z m0 292h-916c-23 0-42 19-42 42s19 41 42 41h916c23 0 42-18 42-41s-19-42-42-42z m0-583h-458c-23 0-42 18-42 41s19 42 42 42h458c23 0 42-19 42-42s-19-41-42-41z" horiz-adv-x="1000" />

<glyph glyph-name="menu-1" unicode="&#xea0f;" d="M958 308h-916c-23 0-42 19-42 42s19 42 42 42h916c23 0 42-19 42-42s-19-42-42-42z m0 292h-458c-23 0-42 19-42 42s19 41 42 41h458c23 0 42-18 42-41s-19-42-42-42z m-458-583h-458c-23 0-42 18-42 41s19 42 42 42h458c23 0 42-19 42-42s-19-41-42-41z" horiz-adv-x="1000" />

<glyph glyph-name="down-arrow" unicode="&#xea10;" d="M500 100c-11 0-21 4-29 12l-447 446 59 59 417-416 417 416 59-59-446-446c-9-8-19-12-30-12z" horiz-adv-x="1000" />

<glyph glyph-name="left-arrow" unicode="&#xea11;" d="M708-126l-446 447c-16 16-16 42 0 59l446 446 59-59-416-417 416-417-59-59z" horiz-adv-x="1000" />

<glyph glyph-name="right-arrow" unicode="&#xea12;" d="M292-126l-59 59 416 417-416 417 59 59 446-446c16-17 16-43 0-59l-446-447z" horiz-adv-x="1000" />

<glyph glyph-name="up-arrow" unicode="&#xea13;" d="M917 83l-417 416-417-416-59 59 447 446c16 16 42 16 59 0l446-446-59-59z" horiz-adv-x="1000" />

<glyph glyph-name="phone-1" unicode="&#xea14;" d="M647 247l-97-96-249 249 96 97a42 42 0 0 1 9 45l-100 233a42 42 0 0 1-49 24l-183-48a42 42 0 0 1-32-42 881 881 0 0 1 250-567 881 881 0 0 1 567-250 42 42 0 0 1 42 32l48 183a42 42 0 0 1-23 49l-233 100a42 42 0 0 1-46-9z" horiz-adv-x="1000" />

<glyph glyph-name="pin-3-1" unicode="&#xea15;" d="M500 850c-183 0-375-142-375-375 0-221 333-558 346-571 8-8 17-12 29-12s21 4 29 12c13 13 346 350 346 571 0 233-192 375-375 375z m0-500c-71 0-125 54-125 125s54 125 125 125 125-54 125-125-54-125-125-125z" horiz-adv-x="1000" />

<glyph glyph-name="search-content" unicode="&#xea16;" d="M42 433h291c23 0 42 19 42 42v0c0 23-19 42-42 42h-291c-23 0-42-19-42-42s19-42 42-42z m0-250h291c23 0 42 19 42 42v0c0 23-19 42-42 42h-291c-23 0-42-19-42-42s19-42 42-42z m625-166h-625c-23 0-42-19-42-42s19-42 42-42h625c23 0 41 19 41 42s-18 42-41 42z m-625 666h625c23 0 41 19 41 42s-18 42-41 42h-625c-23 0-42-19-42-42s19-42 42-42z m946-595l-148 147c22 33 35 73 35 115 0 115-93 208-208 208s-209-93-209-208 94-208 209-208c42 0 81 13 114 34l148-147c8-8 19-12 29-12s22 4 30 12c16 16 16 43 0 59z m-321 137c-69 0-125 56-125 125s56 125 125 125 125-56 125-125-56-125-125-125z" horiz-adv-x="1000" />

<glyph glyph-name="single-01-1" unicode="&#xea17;" d="M500 308c138 0 250 113 250 250v42c0 138-112 250-250 250s-250-112-250-250v-42c0-137 112-250 250-250z m305-124c-196 54-414 54-610 0-90-25-153-107-153-201v-133h916v133c0 94-63 176-153 201z" horiz-adv-x="1000" />

<glyph glyph-name="i-delete" unicode="&#xea18;" d="M250 392h500v-84h-500v84z" horiz-adv-x="1000" />

<glyph glyph-name="zoom-1" unicode="&#xea19;" d="M961-23l-239 239a376 376 0 1 1-88-88l239-239z m-836 456a292 292 0 1 0 292-291 292 292 0 0 0-292 291z" horiz-adv-x="1000" />

<glyph glyph-name="b-meeting" unicode="&#xea1a;" d="M418 578l0-272 17 14c9 7 68 55 132 106l116 92 158 0 159 0 0 166 0 166-291 0-291 0 0-272m499 105l1-83-133 0-133 0-69-55c-38-31-72-58-76-61-7-6-7 1-7 139l0 145 208-1 208-1 1-83m-731-256c-35-11-70-42-86-73-37-72-6-162 68-198 19-10 26-11 61-11 34 0 41 1 61 11 24 11 57 42 68 63 22 41 22 96 0 138-11 21-44 51-68 63-18 8-29 10-56 11-19 1-39-1-48-4m532-4c-81-34-116-124-77-202 11-23 44-54 69-65 20-10 27-11 62-11 34 0 41 1 60 11 58 28 93 94 82 154-9 48-37 87-81 109-18 9-28 11-57 12-31 1-39 0-58-8m-460-81c44-22 43-90-2-111-39-18-88 12-88 55 0 48 47 78 90 56m546-3c48-35 31-106-28-113-65-7-92 85-34 116 17 10 47 9 62-3m-627-243c-49-9-101-33-136-64-9-7-21-23-27-36-12-22-12-25-13-85l-2-61 229 0 230 0-2 63c-1 75-4 83-38 117-24 24-73 51-111 60-29 8-102 11-130 6m536-2c-71-14-136-54-158-98-9-18-10-24-11-83l-2-63 230 0 229 0-2 62c-1 60-1 62-13 85-20 38-76 77-136 93-33 9-103 11-137 4m-424-86c47-14 81-38 85-61l2-15-147 0c-132 0-147 1-147 6 0 14 13 32 30 44 50 33 115 43 177 26m553-4c34-12 62-31 70-48 12-25 17-24-143-24l-145 0 2 15c3 16 18 31 46 45 53 27 113 31 170 12" horiz-adv-x="1000" />

<glyph glyph-name="bag-20" unicode="&#xea1b;" d="M459 846c-45-10-77-28-110-64-35-37-56-84-56-124l0-15-104-1-105-1-1-395-1-396 418 0 418 0-1 396-1 395-104 1-105 1 0 15c0 40-21 87-56 124-41 45-82 64-141 66-20 1-42 0-51-2m92-90c36-16 66-56 72-97l3-16-126 0-126 0 3 16c8 51 48 95 97 105 22 5 56 1 77-8m-258-261l0-63 41 0 41 0 0 63 0 62 125 0 125 0 0-62 0-63 41 0 41 0 0 63 0 62 63 0 62 0 0-312 0-313-332 0-332 0 0 313 0 312 63 0 62 0 0-62" horiz-adv-x="1000" />

<glyph glyph-name="bath-tub-2" unicode="&#xea1c;" d="M555 843c-52-14-95-49-120-101-15-30-15-30-16-86l-2-56 41 0 41 0 2 46c2 53 7 67 35 93 46 43 117 34 154-19l15-23 1-173 1-174-354 0-354 0 2-106c1-105 2-107 12-133 13-34 28-55 57-82 34-32 84-54 122-54l15 0 0-63 0-62 43 0 43 0 0 62 0 63 207 0 207 0 0-63 0-62 43 0 43 0 0 62 0 63 15 0c43 0 91 23 130 62 54 55 62 84 62 218l0 95-103 0-104 0 0 159c0 89-2 171-4 185-6 36-24 72-52 100-49 49-115 66-182 49m362-614c3-87-17-130-72-157l-26-13-319 0-318 0-27 13c-55 27-73 65-73 154l0 42 417-1 417-1 1-37" horiz-adv-x="1000" />

<glyph glyph-name="web-link" unicode="&#xea1d;" d="M708 249l-59 59 214 214a42 42 0 0 1 0 59l-132 132a42 42 0 0 1-59 0l-214-214-59 59 214 214a125 125 0 0 0 177 0l132-132a125 125 0 0 0 0-177z m-409-357a125 125 0 0 0-88 36l-133 132a125 125 0 0 0 0 177l214 214 59-59-214-214a42 42 0 0 1 0-59l132-132a42 42 0 0 1 59 0l214 214 59-59-214-214a125 125 0 0 0-88-36z m76 291a42 42 0 0 0-29 72l250 250a42 42 0 0 0 59-59l-250-250a42 42 0 0 0-30-13z" horiz-adv-x="1000" />

<glyph glyph-name="shopping-cart-2" unicode="&#xea1e;" d="M0 809l0-41 62 0 63 0 1-286 1-286 13-27c9-19 19-31 33-42 36-28 17-27 422-27l362 0 0 41 0 41-356 0c-395 0-375-1-388 26-4 9-6 21-5 36l1 22 308 1 307 1 4 15c13 49 98 392 98 395 0 3-120 4-359 5l-358 1-1 83-1 83-104 0-103 0 0-41m820-212c0-1-14-57-30-124l-31-121-276-1-276-1 0 125 0 125 307 0c168 0 306-1 306-3m-586-583c-80-15-90-126-14-158 52-22 112 19 112 77 0 53-45 91-98 81m582 0c-23-4-45-22-57-46-8-17-10-24-8-42 4-41 34-71 75-75 18-2 25-1 43 8 54 27 64 96 19 135-11 10-23 17-32 18-8 2-17 3-20 4-3 1-12 0-20-2" horiz-adv-x="1000" />

<glyph glyph-name="cart-return" unicode="&#xea1f;" d="M0 809l0-41 65 0c35 0 64 0 64-1 0 0 19-141 42-311l42-311 327-1 327-1 2 9c13 55 95 478 93 480-4 3-75 16-77 14-1-1-21-96-44-211l-42-210-257 0c-205 0-257 1-257 5 0 5-76 581-80 605l-3 15-101 0-101 0 0-41m407-77l-91-91 92-92 92-91 29 29 30 29-42 42-42 42 96 0 97 0 0-125 0-125 41 0 41 0 0 166 0 166-138 0-137 0 42 42 42 42-29 28c-15 16-29 29-30 29-1 0-43-41-93-91m-150-637c-32-9-60-33-78-67-8-13-9-22-9-53 0-31 1-40 9-54 23-42 60-67 105-70 35-2 66 9 92 34 23 21 32 37 38 67 5 26 1 58-12 82-10 19-38 45-59 54-24 11-62 14-86 7m500 0c-32-9-60-33-78-67-8-13-9-22-9-53 0-31 1-40 9-54 23-42 60-67 105-70 35-2 66 9 92 34 23 21 32 37 38 67 5 26 1 58-12 82-10 19-38 45-59 54-24 11-62 14-86 7m-451-82c17-8 26-21 26-39 0-17-15-36-31-40-24-5-51 17-51 42 0 15 14 34 28 38 7 2 14 3 14 4 1 0 7-2 14-5m500 0c17-8 26-21 26-39 0-17-15-36-31-40-24-5-51 17-51 42 0 15 14 34 28 38 7 2 14 3 14 4 1 0 7-2 14-5" horiz-adv-x="1000" />

<glyph glyph-name="check" unicode="&#xea20;" d="M646 388l-271-270-146 145-145 146-29-30-29-29 174-175 175-175 300 300 300 300-30 29-29 30-270-271" horiz-adv-x="1000" />

<glyph glyph-name="g-check" unicode="&#xea21;" d="M828 671c-183-61-322-142-467-273l-36-32-80 61-81 61-66-66c-37-36-67-67-67-69 0-2 70-95 154-208l154-205 28 50c58 106 109 173 199 263 106 105 227 193 356 261l50 26-37 75c-27 57-38 75-43 75-4 0-33-9-64-19m29-85c4-9 1-11-57-46-184-111-341-254-444-406-14-21-27-38-28-37-4 1-187 246-187 249 0 1 7 9 15 17l15 15 85-64 85-63 10 13c19 25 73 79 114 113 106 89 209 148 346 200 46 17 43 17 46 9" horiz-adv-x="1000" />

<glyph glyph-name="d-check" unicode="&#xea22;" d="M583 408l-165-165-84 84-84 84-30-31-30-30 111-111c61-62 113-112 115-112 2 0 91 88 198 195l195 194-29 28c-15 16-29 29-30 29-1 0-76-75-167-165" horiz-adv-x="1000" />

<glyph glyph-name="circle-10" unicode="&#xea23;" d="M424 844c-220-37-385-205-418-424-24-155 32-316 148-428 195-189 497-189 692 0 205 197 204 518-1 718-109 106-274 159-421 134m119-80c64-7 134-32 191-69 28-19 92-83 111-112 31-47 55-106 65-163 7-36 6-113-2-150-12-59-43-129-72-166l-13-16-13 23c-18 31-40 49-92 79-58 33-55 30-47 42 13 18 25 45 31 65 7 28 7 161-1 189-15 57-60 111-112 136-83 38-172 22-235-42-52-53-61-81-61-189 0-89 5-113 32-153l11-16-28-17c-85-48-95-57-118-94l-13-23-12 15c-15 19-41 67-54 99-24 60-33 156-21 218 11 58 33 115 64 163 20 29 83 93 112 112 67 44 145 68 227 72 5 1 28-1 50-3m11-218c25-13 46-34 58-59 11-21 11-23 11-94 0-70 0-73-10-94-13-27-37-52-62-64-25-11-77-11-102 0-25 12-49 37-62 64-10 21-10 24-10 94 0 65 1 74 8 90 15 32 41 56 76 69 21 8 72 5 93-6m-116-395c30-11 94-11 125 0 11 4 24 9 27 10 9 3 119-59 137-77 14-15 23-37 23-57 0-9-4-13-20-25-140-91-319-91-460 1l-21 13 2 21c3 23 16 46 34 58 43 28 117 68 123 66 5-1 18-5 30-10" horiz-adv-x="1000" />

<glyph glyph-name="circle-simple-left" unicode="&#xea24;" d="M424 844c-220-37-385-205-418-424-24-155 32-316 148-428 195-189 497-189 692 0 205 197 204 518-1 718-109 106-274 159-421 134m119-80c64-7 134-32 191-69 28-19 92-83 111-112 31-47 55-106 65-163 7-36 6-113-2-150-38-183-183-315-367-334-120-12-238 28-326 111-85 81-130 184-130 301 0 86 22 163 69 235 20 29 83 93 112 112 67 44 145 68 227 72 5 1 28-1 50-3m-199-303l-111-111 111-111c61-62 113-112 115-112 2 0 16 13 31 28l27 27-62 63-62 62 178 0 179 0 0 43 0 43-179 0-178 0 62 62 62 63-27 27c-15 15-29 28-31 28-2 0-54-50-115-112" horiz-adv-x="1000" />

<glyph glyph-name="circle-simple-right" unicode="&#xea25;" d="M424 844c-220-37-385-205-418-424-24-155 32-316 148-428 195-189 497-189 692 0 205 197 204 518-1 718-109 106-274 159-421 134m119-80c64-7 134-32 191-69 28-19 92-83 111-112 31-47 55-106 65-163 7-36 6-113-2-150-38-183-183-315-367-334-120-12-238 28-326 111-85 81-130 184-130 301 0 86 22 163 69 235 20 29 83 93 112 112 67 44 145 68 227 72 5 1 28-1 50-3m-33-219l-27-27 62-63 62-62-178 0-179 0 0-43 0-43 179 0 178 0-62-62-62-63 27-27c15-15 29-28 31-28 2 0 54 50 115 112l112 111-112 111c-61 62-113 112-115 112-2 0-16-13-31-28" horiz-adv-x="1000" />

<glyph glyph-name="compare" unicode="&#xea26;" d="M220 544l-29-28 62-61 61-62-135 0-136 0 0-43 0-43 136 0 135 0-61-62-62-61 30-29 29-29 112 112 113 112-112 111c-61 62-112 112-113 112-1 0-15-13-30-29m417-83l-112-111 113-112 112-112 29 29 30 29-62 61-61 62 135 0 136 0 0 43 0 43-136 0-135 0 61 62 62 61-29 28c-15 16-29 29-30 29-1 0-52-50-113-112" horiz-adv-x="1000" />

<glyph glyph-name="letter" unicode="&#xea27;" d="M99 764c-36-7-71-36-88-72-8-18-9-25-10-110l-2-90 249-135c136-75 250-136 252-136 2 0 116 61 252 136l249 135-2 90c-1 84-1 92-10 110-12 25-40 54-65 65l-20 9-394 1c-217 0-402-1-411-3m799-88c16-11 20-28 20-83l0-51-209-114-209-114-209 114-209 114 0 53c0 56 3 69 20 81 8 5 52 6 398 6 353 0 390-1 398-6m-897-487c1-159 1-162 10-181 16-37 53-64 94-72 29-5 761-5 790 0 41 8 78 35 94 72 9 19 9 22 10 181l1 161-41 0-41 0-1-155-1-154-13-12-12-11-391 0-390 0-13 11-13 12-1 154-1 155-41 0-41 0 1-161" horiz-adv-x="1000" />

<glyph glyph-name="mail" unicode="&#xea28;" d="M90 763c-12-3-27-8-34-12-17-9-38-34-47-56-7-18-7-34-7-347l0-328 9-20c16-35 44-57 84-64 33-6 777-6 810 0 40 7 68 29 84 64l9 20 0 328c0 313 0 329-7 347-9 23-30 47-49 57-8 4-25 9-38 12-34 6-785 5-814-1m752-88c-5-4-83-74-174-157-91-83-166-150-168-150-2 0-77 67-168 150-91 83-169 153-174 157-7 6 11 7 342 7 331 0 349-1 342-7m-536-246l194-177 208 189 208 190 1-286c1-157 0-292-1-299-1-7-6-16-10-20-7-8-17-8-406-8-386 0-398 0-407 7l-9 8-1 300-1 300 15-14c8-8 102-93 209-190" horiz-adv-x="1000" />

<glyph glyph-name="email" unicode="&#xea29;" d="M90 763c-12-3-27-8-34-12-17-9-38-34-47-56-7-18-7-34-7-347l0-328 9-20c16-35 44-57 84-64 33-6 777-6 810 0 40 7 68 29 84 64l9 20 0 328c0 313 0 329-7 347-9 23-30 47-49 57-8 4-25 9-38 12-34 6-785 5-814-1m812-85c15-8 16-19 16-328 0-309-1-320-16-328-4-3-152-4-403-4-385 0-397 0-406 7l-9 8 0 317 0 317 9 8c9 7 21 7 406 7 251 0 399-1 403-4m-723-89c-15-14-27-28-27-30 0-2 79-82 174-178l174-173 174 173c95 96 174 176 174 178 0 2-13 16-28 31l-27 28-147-147-146-146-145 145c-81 80-147 146-148 146-1 0-14-12-28-27m43-375c-38-38-70-71-70-73 0-2 13-16 28-31l27-27 71 71 72 71-30 29-29 30-69-70m458 40l-29-29 71-71 71-71 27 27c15 15 28 29 28 31 0 2-32 35-70 73l-69 70-29-30" horiz-adv-x="1000" />

<glyph glyph-name="eye" unicode="&#xea2a;" d="M437 637c-118-18-228-84-334-198-28-30-68-82-68-89 0-13 62-87 114-135 110-103 227-155 351-155 124 0 241 52 351 155 62 58 116 125 112 139-3 10-41 59-68 88-85 90-166 146-255 175-72 24-135 31-203 20m117-91c25-13 46-34 58-59 9-18 11-27 11-53 0-38-10-63-34-87-52-50-126-50-178 0-24 24-34 49-34 87 0 57 30 98 84 118 21 8 72 5 93-6m-257-65c-6-25-5-80 2-104 21-70 79-128 148-146 30-8 76-8 106 0 72 19 135 85 150 157 5 22 4 84-2 102-7 21 87-53 139-111 13-14 23-27 23-29 0-10-83-91-128-124-167-124-358-109-520 41-34 31-78 78-78 83 0 5 47 56 76 82 24 22 85 67 87 65 0 0-1-8-3-16" horiz-adv-x="1000" />

<glyph glyph-name="heart-2" unicode="&#xea2b;" d="M229 844c-77-17-158-79-195-150-25-47-32-78-32-135 1-60 10-96 41-160 55-116 147-230 319-397 47-46 133-121 138-121 5 0 87 72 136 119 204 196 311 340 351 473 9 30 10 43 11 86 0 43-1 55-9 80-32 104-120 185-223 205-39 8-94 6-131-4-35-9-83-34-111-56l-24-20-24 20c-28 22-77 47-111 57-33 9-102 10-136 3m117-85c53-14 100-53 140-117 7-10 13-18 14-18 1 0 12 14 23 31 26 39 51 64 80 81 85 51 185 37 254-34 120-125 58-300-201-564-69-71-150-147-156-147-6 0-86 75-151 141-263 267-327 444-206 570 55 57 127 77 203 57" horiz-adv-x="1000" />

<glyph glyph-name="shopping-cart-3" unicode="&#xea2c;" d="M0 766l0-41 65-1 66-1 41-310 41-311 327-1 327-1 2 9c1 5 24 117 50 250l49 241-369 0c-203 0-368 1-368 3 0 4-24 177-26 191l-2 13-102 0-101 0 0-41m863-257c0-5-14-80-32-167l-32-158-256-1-256-1-21 155c-11 86-21 161-22 168l-3 13 311 0 311 0 0-9m-629-495c-80-15-90-126-14-158 52-22 112 19 112 77 0 53-45 91-98 81m582 0c-23-4-45-22-57-46-8-17-10-24-8-42 4-41 34-71 75-75 18-2 25-1 43 8 54 27 64 96 19 135-11 10-23 17-32 18-8 2-17 3-20 4-3 1-12 0-20-2" horiz-adv-x="1000" />

<glyph glyph-name="list-bullet-2" unicode="&#xea2d;" d="M87 803c-6-2-20-9-31-16-65-44-75-131-21-188 21-23 37-31 68-38 41-8 82 5 112 38 58 62 41 157-36 197-19 10-70 14-92 7m60-86c33-20 17-74-21-74-41 0-57 54-23 74 16 10 28 10 44 0m185-33l0-41 334 0 334 0 0 41 0 41-334 0-334 0 0-41m-235-213c-37-9-69-35-86-69-7-15-9-25-9-52 0-39 9-61 35-88 44-43 110-49 160-13 81 58 66 178-26 216-19 8-55 11-74 6m50-86c17-9 24-37 13-56-3-6-11-13-18-16-41-20-78 34-46 66 14 14 30 16 51 6m185-35l0-43 334 0 334 0 0 43 0 43-334 0-334 0 0-43m-230-212c-60-9-105-67-101-129 3-46 28-83 70-105 14-8 23-9 54-9 31 0 40 1 54 9 59 31 85 96 63 155-10 26-32 53-56 66-14 9-22 11-55 16-4 0-17-1-29-3m48-90c19-16 20-47 2-64-11-10-43-10-54 0-19 18-17 52 4 67 13 9 36 8 48-3m182-32l0-41 334 0 334 0 0 41 0 41-334 0-334 0 0-41" horiz-adv-x="1000" />

<glyph glyph-name="marker-3" unicode="&#xea2e;" d="M448 846c-81-14-155-67-202-143-38-63-48-155-25-232 19-65 74-131 138-169 21-12 74-30 88-30l10 0 0-127 0-127 43 0 43 0 0 127 0 127 10 0c14 0 67 18 88 30 69 40 122 107 141 180 9 36 11 104 3 139-23 112-123 207-235 225-28 5-74 5-102 0m87-82c42-7 79-27 111-60 43-43 61-86 61-145 0-59-19-106-60-148-82-82-212-82-293 0-42 42-61 89-61 148 0 61 21 109 66 151 49 46 110 65 176 54m-410-873l0-41 375 0 375 0 0 41 0 41-375 0-375 0 0-41" horiz-adv-x="1000" />

<glyph glyph-name="measure-17" unicode="&#xea2f;" d="M366 484c-186-187-339-341-339-343 0-5 259-264 264-264 2 0 157 153 344 340l340 340-34 34c-93 97-228 232-232 232-2 0-156-153-343-339m417 147l74-74-282-282-282-282-75 75-75 75 32 32 32 32 22-21 21-21 30 30 30 30-21 22-21 21 32 32 32 32 42-42 42-42 28 29c16 16 29 30 29 32 0 2-18 22-40 44l-40 40 32 32 32 32 22-21 21-21 30 30 30 30-21 22-21 21 32 32 32 32 40-40c22-22 42-40 44-40 5 0 57 52 57 57 0 2-18 22-40 44l-40 40 31 31c17 17 32 32 33 32 1 0 35-34 76-75" horiz-adv-x="1000" />

<glyph glyph-name="menu-8-2" unicode="&#xea30;" d="M0 641l0-41 500 0 500 0 0 41 0 41-500 0-500 0 0-41m0-291l0-43 500 0 500 0 0 43 0 43-500 0-500 0 0-43m0-291l0-41 500 0 500 0 0 41 0 41-500 0-500 0 0-41" horiz-adv-x="1000" />

<glyph glyph-name="menu-7" unicode="&#xea31;" d="M0 641l0-41 500 0 500 0 0 41 0 41-500 0-500 0 0-41m0-291l0-43 313 0 312 0 0 43 0 43-312 0-313 0 0-43m0-291l0-41 500 0 500 0 0 41 0 41-500 0-500 0 0-41" horiz-adv-x="1000" />

<glyph glyph-name="menu-4-2" unicode="&#xea32;" d="M0 641l0-41 500 0 500 0 0 41 0 41-500 0-500 0 0-41m0-291l0-43 500 0 500 0 0 43 0 43-500 0-500 0 0-43m0-291l0-41 272 0 271 0 0 41 0 41-271 0-272 0 0-41" horiz-adv-x="1000" />

<glyph glyph-name="menu-3-2" unicode="&#xea33;" d="M0 641l0-41 500 0 500 0 0 41 0 41-500 0-500 0 0-41m0-291l0-43 500 0 500 0 0 43 0 43-500 0-500 0 0-43m457-291l0-41 272 0 271 0 0 41 0 41-271 0-272 0 0-41" horiz-adv-x="1000" />

<glyph glyph-name="menu-2" unicode="&#xea34;" d="M457 641l0-41 272 0 271 0 0 41 0 41-271 0-272 0 0-41m-457-291l0-43 500 0 500 0 0 43 0 43-500 0-500 0 0-43m0-291l0-41 272 0 271 0 0 41 0 41-271 0-272 0 0-41" horiz-adv-x="1000" />

<glyph glyph-name="microsoft" unicode="&#xea35;" d="M0 622l0-229 229 0 228 0 0 229 0 228-228 0-229 0 0-228m543 0l0-229 229 0 228 0 0 229 0 228-228 0-229 0 0-228m-168 0l0-147-146 0-147 0 0 147 0 146 147 0 146 0 0-146m542-1l1-146-146 0-147 0 0 147 0 146 146-1 145-1 1-145m-917-542l0-229 229 0 228 0 0 229 0 228-228 0-229 0 0-228m543 0l0-229 229 0 228 0 0 229 0 228-228 0-229 0 0-228m-168 0l0-147-146 0-147 0 0 147 0 146 147 0 146 0 0-146m542 1l-1-146-145-1-146-1 0 147 0 146 147 0 146 0-1-145" horiz-adv-x="1000" />

<glyph glyph-name="phone-2" unicode="&#xea36;" d="M80 741l-81-82 2-52c16-317 207-585 502-702 78-31 164-49 254-54l52-2 82 81c45 45 82 84 82 86 0 2-60 63-132 136l-132 132-62-63-63-62-138 137-137 138 62 63 63 62-132 132c-73 72-134 132-136 132-2 0-41-37-86-82m163-109l73-73-62-62-63-63 197-196 196-197 63 63 62 62 74-74 74-74-43-43-42-43-41 4c-115 11-216 45-313 105-189 118-314 321-332 541l-3 40 42 42c22 23 42 42 43 42 1 0 35-33 75-74" horiz-adv-x="1000" />

<glyph glyph-name="phone-call-1" unicode="&#xea37;" d="M543 810l0-41 47-2c25-2 60-7 77-11 91-23 173-90 216-177 21-42 30-81 33-139l3-47 41 0 41 0-2 52c-3 67-15 115-44 173-68 139-201 224-360 231l-52 2 0-41m-463-69l-81-82 2-52c16-317 207-585 502-702 78-31 164-49 254-54l52-2 82 81c45 45 82 84 82 86 0 2-60 63-132 136l-132 132-62-63-63-62-138 137-137 138 62 63 63 62-132 132c-73 72-134 132-136 132-2 0-41-37-86-82m163-109l73-73-62-62-63-63 197-196 196-197 63 63 62 62 74-74 74-74-43-43-42-43-41 4c-115 11-216 45-313 105-189 118-314 321-332 541l-3 40 42 42c22 23 42 42 43 42 1 0 35-33 75-74m300 9l0-41 27 0c57 0 99-17 133-53 32-34 47-75 47-129l0-25 41 0 41 0 0 37c0 48-5 71-23 110-44 90-128 142-229 142l-37 0 0-41" horiz-adv-x="1000" />

<glyph glyph-name="pin-3-2" unicode="&#xea38;" d="M443 846c-146-21-272-134-306-273-24-100-9-189 53-303 59-107 164-246 264-348l46-47 46 47c101 103 208 245 264 350 49 91 67 157 64 226-4 56-15 100-38 147-69 141-230 224-393 201m109-84c112-19 202-100 230-208 11-43 11-99 0-139-20-70-82-177-168-286-45-59-109-133-114-133-5 0-69 75-116 135-84 108-146 214-166 284-24 89 3 194 69 261 71 74 164 104 265 86m-76-123c-46-5-98-41-121-83-36-64-24-145 28-198 96-96 260-42 281 93 13 79-39 160-117 183-19 6-45 8-71 5m68-94c9-6 20-17 26-26 9-13 10-19 10-44 0-25-1-31-11-45-5-8-17-20-25-25-12-9-19-10-44-10-25 0-32 1-44 10-44 30-51 91-14 128 18 19 34 24 62 23 20-1 29-3 40-11" horiz-adv-x="1000" />

<glyph glyph-name="pin-check" unicode="&#xea39;" d="M360 846c-34-5-96-27-131-47-89-51-150-130-176-228-9-34-12-112-6-145 16-86 78-203 175-330 49-65 69-88 136-161l57-62 29 28c16 16 29 30 29 31 0 1-21 24-47 51-149 160-255 316-290 426-11 37-12 105-2 144 23 82 75 144 153 182 50 24 78 31 129 31 53 0 80-7 135-34 35-17 46-25 74-53 28-28 37-40 52-71 30-62 38-128 22-190-9-37-40-102-75-159-15-24-26-44-26-46 0-3 61-43 66-43 5 0 46 67 73 121 44 86 59 151 52 224-10 93-45 166-110 228-70 66-152 101-247 105-26 1-58 0-72-2m37-207c-46-6-81-25-110-61-80-97-21-248 104-267 101-15 191 62 191 164 0 49-17 87-54 122-36 34-81 48-131 42m54-89c9-4 22-14 28-21 47-53 8-136-62-136-48 0-82 34-82 82 0 35 20 65 52 78 15 6 47 4 64-3m277-412l-103-102-41 41-41 41-30-31-30-30 71-71 71-71 134 133 134 134-30 29c-16 16-30 30-31 30-1 0-48-46-104-103" horiz-adv-x="1000" />

<glyph glyph-name="e-remove" unicode="&#xea3a;" d="M179 671c-15-14-27-28-27-30 0-2 65-68 144-147l143-144-143-144c-79-78-144-145-144-147 0-5 52-57 57-57 2 0 69 65 147 144l144 143 146-145 145-146 28 29c16 16 29 30 29 32 0 2-65 69-144 147l-143 144 143 144c79 79 144 145 144 147 0 5-52 57-57 57-2 0-68-65-147-144l-144-143-144 143c-78 79-145 144-147 144-2 0-16-12-30-27" horiz-adv-x="1000" />

<glyph glyph-name="single-01-2" unicode="&#xea3b;" d="M447 844c-36-8-55-16-84-35-54-36-94-96-108-158-8-42-5-133 6-168 24-75 87-138 163-163 26-9 38-10 76-10 38 0 50 1 77 10 75 25 138 88 162 163 6 19 9 39 10 82 2 69-4 101-27 148-49 99-166 155-275 131m80-80c60-10 114-56 132-115 8-25 10-75 5-109-8-60-42-107-95-131-42-20-101-20-142 1-28 13-62 47-75 74-25 50-26 141-2 189 23 44 73 83 120 91 28 4 29 4 57 0m-109-543c-92-8-223-37-266-58-31-16-67-52-84-84-21-40-25-63-25-151l0-78 457 0 457 0 0 78c0 88-4 111-24 150-18 32-54 69-85 85-45 22-172 50-272 58-53 4-104 4-158 0m184-86c77-8 182-33 212-50 24-13 46-41 55-68 3-11 6-33 6-52l0-33-375 0-375 0 0 33c0 40 8 65 27 90 19 26 45 39 102 53 77 19 117 25 207 33 24 2 96-1 141-6" horiz-adv-x="1000" />

<glyph glyph-name="i-add" unicode="&#xea3c;" d="M457 497l0-104-103 0-104 0 0-43 0-43 104 0 103 0 0-103 0-104 43 0 43 0 0 104 0 103 104 0 103 0 0 43 0 43-103 0-104 0 0 104 0 103-43 0-43 0 0-103" horiz-adv-x="1000" />

<glyph glyph-name="small-triangle-down" unicode="&#xea3d;" d="M224 548c11-21 274-440 276-440 2 0 265 419 277 440l5 9-282 0-281 0 5-9m402-86c-5-7-35-54-66-105-32-51-59-93-60-93-1 0-28 42-60 93-31 51-61 98-65 105l-9 13 134 0 134 0-8-13" horiz-adv-x="1000" />

<glyph glyph-name="small-triangle-left" unicode="&#xea3e;" d="M481 492c-123-77-223-141-223-142 0-1 100-65 223-142l224-139 1 141c1 77 1 203 0 281l-1 140-224-139m143-208l-1-66-104 65c-58 36-105 66-105 67 0 1 47 31 105 67l104 65 1-66c1-36 1-96 0-132" horiz-adv-x="1000" />

<glyph glyph-name="small-triangle-right" unicode="&#xea3f;" d="M293 350l0-282 9 5c5 4 106 67 224 141 119 73 216 135 216 136 0 1-97 63-216 137-118 74-219 137-224 140l-9 5 0-282m200 60c51-32 93-59 93-60 0-2-59-39-175-110l-36-23 0 133 0 134 13-8c7-5 54-35 105-66" horiz-adv-x="1000" />

<glyph glyph-name="tag-check" unicode="&#xea40;" d="M333 658l-165-165 0-322 0-321 166 0 166 0 0 41 0 41-125 0-125 0 0 263 0 263 125 124 125 125 125-125 125-124 0-117 0-116 41 0 41 0 0 134 0 134-165 165c-91 90-166 165-167 165-1 0-76-75-167-165m144-145c-60-9-105-67-101-129 3-45 28-82 70-105 14-8 23-9 54-9 31 0 40 1 54 9 59 31 85 96 63 155-10 26-32 53-56 66-14 9-22 11-55 16-4 0-17-1-29-3m48-90c19-16 20-47 2-64-11-10-43-10-54 0-19 18-17 52 4 67 13 9 36 8 48-3m285-328l-103-102-41 41-41 40-29-29-30-29 70-69c38-38 71-70 73-70 5 0 264 259 264 264 0 5-52 57-57 57-2 0-50-46-106-103" horiz-adv-x="1000" />

<glyph glyph-name="tag" unicode="&#xea41;" d="M0 632l0-218 269-268c147-148 270-269 272-269 2 0 101 97 219 215l215 215-37 38c-21 21-142 143-270 272l-232 233-218 0-218 0 0-218m627-94l230-231-157-157-157-157-230 230-231 231 0 157 0 157 157 0 158 0 230-230m-387 133c-45-22-69-58-71-106-2-38 8-66 33-92 43-45 112-52 162-15 77 55 66 171-19 213-14 7-27 9-50 10-28 1-34 0-55-10m79-84c27-28 11-69-27-69-28 0-45 22-40 49 2 12 14 26 25 30 16 6 29 3 42-10" horiz-adv-x="1000" />

<glyph glyph-name="clock" unicode="&#xea42;" d="M424 844c-220-37-385-205-418-424-24-155 32-316 148-428 195-189 497-189 692 0 205 197 204 518-1 718-109 106-274 159-421 134m119-80c64-7 134-32 191-69 28-19 92-83 111-112 31-47 55-106 65-163 7-36 6-113-2-150-38-183-183-315-367-334-120-12-238 28-326 111-85 81-130 184-130 301 0 86 22 163 69 235 20 29 83 93 112 112 67 44 145 68 227 72 5 1 28-1 50-3m-84-126c-1-2-2-78-1-167l1-162 166 0 166 0 0 41 0 41-124 1-124 1-1 124-1 124-40 1c-30 1-41 0-42-4" horiz-adv-x="1000" />

<glyph glyph-name="time-clock" unicode="&#xea43;" d="M424 844c-220-37-385-205-418-424-24-155 32-316 148-428 195-189 497-189 692 0 205 197 204 518-1 718-109 106-274 159-421 134m33-140l0-61 43 0 43 0 0 61 0 61 21-3c28-4 89-24 121-40 87-43 157-115 195-202 12-27 28-82 32-108l3-19-61 0-61 0 0-43 0-43 61 0c39 0 60-1 60-4 0-2-3-18-6-34-27-130-109-236-229-295-33-16-83-32-115-36l-21-3 0 61 0 61-43 0-43 0 0-61 0-61-20 3c-33 4-83 20-116 36-118 58-200 163-227 288-5 19-8 38-8 40 0 4 15 5 61 5l60 0 0 43 0 43-61 0-60 0 2 19c4 25 19 78 31 106 36 85 109 162 196 204 41 21 104 40 133 42 9 0 9 0 9-60m-149-70c-17-11-30-22-29-24 1-3 46-72 100-154l98-149 115 0 115 0 0 43 0 43-93 0-92 0-87 131c-48 72-90 131-92 130-3 0-19-9-35-20" horiz-adv-x="1000" />

<glyph glyph-name="triangle-left" unicode="&#xea44;" d="M488 581c-166-125-302-229-302-231 0-2 136-106 302-230l303-228 1 229c1 126 1 332 0 458l-1 229-303-227m218-376l-1-144-192 143c-106 79-192 145-192 146 0 1 86 67 192 146l192 144 1-145c1-80 1-210 0-290" horiz-adv-x="1000" />

<glyph glyph-name="triangle-right" unicode="&#xea45;" d="M207 350c0-251 1-457 1-457 4 0 607 454 607 457 0 3-603 457-607 457 0 0-1-206-1-457m285 143c103-78 187-142 187-143 0-2-369-280-381-286-4-3-5 42-5 286 0 244 1 289 5 286 3-1 90-66 194-143" horiz-adv-x="1000" />

<glyph glyph-name="business-agent" unicode="&#xea46;" d="M448 846c-101-18-193-98-225-193-33-102-6-267 59-353 13-18 15-22 11-25-3-2-51-31-105-64-55-33-105-65-110-70-6-6-16-19-22-30l-11-21-1-120-1-120 457 0 457 0-1 120-1 120-11 21c-6 11-16 24-22 30-5 5-55 37-109 70-55 33-103 62-106 64-4 3-2 7 9 23 67 87 95 255 59 358-28 83-100 152-186 180-26 9-41 11-77 12-25 1-53 0-64-2m87-82c54-9 107-45 140-93 14-21 31-65 27-69-3-4-44 11-71 25-16 8-39 26-58 44l-32 30-32-31c-50-47-112-74-173-74-34 0-40 3-37 17 10 49 61 110 113 134 42 19 77 24 123 17m21-189c33-25 93-51 130-56 10-1 18-3 19-5 4-5-9-69-20-97-12-34-21-50-43-79-37-48-83-70-142-70-59 0-105 22-142 70-22 29-31 45-43 79-8 21-22 83-22 96 0 0 18 1 39 1 44 0 85 7 121 22 26 10 76 38 80 45 4 6 9 4 23-6m-122-383c16-5 40-7 66-7 46 0 79 7 114 24l22 11 114-69c72-43 116-72 119-78 4-7 6-28 6-76l0-65-111 0-110 0-42 106-42 105-70 0-70 0-42-105-42-106-110 0-111 0 0 65c0 48 2 69 6 76 3 6 47 35 119 78l114 69 22-11c12-6 34-14 48-17m102-191c12-30 23-58 25-62 2-7-2-7-61-7-59 0-63 0-61 7 2 4 13 32 25 62l22 56 14 0 14 0 22-56" horiz-adv-x="1000" />

<glyph glyph-name="zoom-2" unicode="&#xea47;" d="M349 802c-41-8-65-17-107-39-90-46-156-127-186-228-13-46-17-120-8-170 41-216 257-350 471-292 33 9 83 33 111 53l20 14 133-133 133-134 28 29c16 15 29 30 29 32 0 2-59 63-131 135l-131 131 18 27c55 83 75 193 53 291-31 134-136 241-272 278-36 10-122 13-161 6m120-81c94-15 186-92 220-183 14-37 18-62 18-105 0-51-8-86-30-130-15-32-24-42-56-74-28-29-44-41-68-53-52-27-70-31-137-31-53 0-61 1-90 11-44 15-77 35-113 71-64 63-93 138-87 227 4 44 10 70 30 109 48 98 148 161 256 162 17 0 43-2 57-4" horiz-adv-x="1000" />

<glyph glyph-name="zoom-88" unicode="&#xea48;" d="M0 684l0-166 41 0 41 0 0 125 0 125 125 0 125 0 0 41 0 41-166 0-166 0 0-166m668 125l0-41 124-1 124-1 1-124 1-124 41 0 41 0 0 166 0 166-166 0-166 0 0-41m-375-459l0-207 207 0 207 0 0 207 0 207-207 0-207 0 0-207m332 0l0-125-125 0-125 0 0 125 0 125 125 0 125 0 0-125m-625-334l0-166 166 0 166 0 0 41 0 41-125 0-125 0 0 125 0 125-41 0-41 0 0-166m917 42l-1-124-124-1-124-1 0-41 0-41 166 0 166 0 0 166 0 166-41 0-41 0-1-124" horiz-adv-x="1000" />

<glyph glyph-name="search-zoom-in" unicode="&#xea49;" d="M349 802c-41-8-65-17-107-39-90-46-156-127-186-228-8-27-10-46-12-85-2-61 4-101 24-152 90-228 368-311 567-169 152 110 200 317 111 482-49 91-133 157-236 185-36 10-122 13-161 6m120-81c94-15 186-92 220-183 14-37 18-62 18-105 0-51-8-86-30-130-15-32-24-42-56-74-28-29-44-41-68-53-52-27-70-31-137-31-53 0-61 1-90 11-44 15-77 35-113 71-64 63-93 138-87 227 4 44 10 70 30 109 48 98 148 161 256 162 17 0 43-2 57-4m-94-183l0-63-62 0-63 0 0-41 0-41 63 0 62 0 0-62 0-63 41 0 41 0 1 62 1 61 62 1 61 1 0 41 0 41-62 0-63 0 0 63 0 62-41 0-41 0 0-62m344-409l-29-29 113-113 113-114 28 29c16 15 29 30 29 32 0 4-219 225-223 225-1 0-15-14-31-30" horiz-adv-x="1000" />

<glyph glyph-name="search-zoom-out" unicode="&#xea4a;" d="M349 802c-41-8-65-17-107-39-90-46-156-127-186-228-8-27-10-46-12-85-2-61 4-101 24-152 90-228 368-311 567-169 152 110 200 317 111 482-49 91-133 157-236 185-36 10-122 13-161 6m120-81c94-15 186-92 220-183 14-37 18-62 18-105 0-51-8-86-30-130-15-32-24-42-56-74-28-29-44-41-68-53-52-27-70-31-137-31-53 0-61 1-90 11-44 15-77 35-113 71-64 63-93 138-87 227 4 44 10 70 30 109 48 98 148 161 256 162 17 0 43-2 57-4m-219-287l0-41 166 0 166 0 0 41 0 41-166 0-166 0 0-41m469-305l-29-29 113-113 113-114 28 29c16 15 29 30 29 32 0 4-219 225-223 225-1 0-15-14-31-30" horiz-adv-x="1000" />

<glyph glyph-name="small-triangle-up" unicode="&#xea4b;" d="M358 369c-76-123-139-224-138-225 1 0 127-1 281 0l281 1-140 224c-77 123-141 223-142 223-1 0-65-100-142-223m209-38l65-104-66-1c-36-1-96-1-132 0l-66 1 65 104c36 58 66 105 67 105 1 0 31-47 67-105" horiz-adv-x="1000" />

<glyph glyph-name="phone-call-2" unicode="&#xea4c;" d="M191 800c-103-27-103-27-117-37-20-14-38-39-41-60-3-20 4-69 20-131 30-120 94-249 174-349 33-42 102-110 148-147 123-98 271-163 426-189 36-6 44-7 60-2 22 6 49 29 58 50 8 19 46 161 49 185 3 32-13 66-40 83-8 6-57 29-109 52-83 37-98 42-121 43-37 3-55-7-86-45-13-16-29-35-34-41l-10-12-16 10c-26 16-88 68-113 94-27 28-66 77-80 99l-9 15 12 10c6 5 25 21 41 34 38 31 48 49 45 86-1 24-6 38-46 126-38 87-46 102-62 118-18 18-40 27-63 27-7-1-46-9-86-19m340-12l0-31 44-2c156-8 280-108 320-258 4-16 9-48 10-72l2-44 32 0 31 0-2 46c-4 77-27 149-68 211-23 35-78 89-113 112-68 45-146 69-227 69l-29 0 0-31m-235-39c9-9 92-194 92-206 0-13-7-19-67-67-28-23-51-43-51-45 0-5 37-64 60-95 39-53 103-117 156-156 31-23 90-60 95-60 2 0 19 19 39 44 53 67 59 73 72 73 15 0 197-81 207-91 4-5 7-12 7-16 0-10-38-155-45-170-3-7-9-13-15-15-21-5-143 25-211 52-111 44-205 105-289 188-72 72-126 146-170 237-32 66-47 106-62 166-23 89-24 116-5 124 13 5 159 44 169 44 5 0 13-3 18-7m235-148l0-32 21 0c51 0 87-14 119-46 30-29 44-61 47-106l2-36 31 0 30 0 0 27c0 76-36 146-97 186-36 24-68 34-115 36l-38 2 0-31" horiz-adv-x="1000" />

<glyph glyph-name="full-screen" unicode="&#xea4d;" d="M0 350l0-418 500 0 500 0 0 418 0 418-500 0-500 0 0-418m918 0l0-332-418 0-418 0 0 332 0 332 418 0 418 0 0-332m-336 209l0-41 84 0 84 0 0-84 0-84 41 0 41 0 0 125 0 125-125 0-125 0 0-41m-414-334l0-125 125 0 125 0 0 41 0 41-84 0-84 0 0 84 0 84-41 0-41 0 0-125" horiz-adv-x="1000" />

<glyph glyph-name="car-parking" unicode="&#xea4e;" d="M870 289l-71 212a83 83 0 0 1-79 57h-440a83 83 0 0 1-79-57l-71-212-64-64a84 84 0 0 1-24-59v-233a42 42 0 0 1 41-41h125a42 42 0 0 1 42 41v42h500v-42a42 42 0 0 1 42-41h125a42 42 0 0 1 41 41v233a84 84 0 0 1-24 59z m-150 186l56-167h-551l55 167z m-595-309l59 59h632l59-59v-108h-750z m83-24a42 42 0 0 1 84 0 42 42 0 0 1-84 0m500 0a42 42 0 0 1 84 0 42 42 0 0 1-84 0m-208 621l441-201 35 76-459 208a42 42 0 0 1-34 0l-459-208 35-76z" horiz-adv-x="1000" />

<glyph glyph-name="transparent" unicode="&#xea4f;" d="M43 620l0-188 145 0 144 0 0-103 0-104-144 0-145 0 0-187 0-188 188 0 187 0 0 146 0 147 104 0 103 0 0-147 0-146 188 0 187 0 0 188 0 187-146 0-147 0 0 104 0 103 147 0 146 0 0 188 0 187-187 0-188 0 0-144 0-145-103 0-104 0 0 145 0 144-187 0-188 0 0-187m289 2l0-104-103 0-104 0 0 104 0 103 104 0 103 0 0-103m586 0l0-104-105 0-106 0 0 104 0 103 106 0 105 0 0-103m-293-293l0-104-103 0-104 0 0 104 0 103 104 0 103 0 0-103m-293-291l0-106-103 0-104 0 0 106 0 105 104 0 103 0 0-105m584 0l0-104-104-1-105-1 0 103c0 56 1 104 3 105 1 2 48 3 104 2l102-1 0-103" horiz-adv-x="1000" />

<glyph glyph-name="bedroom-1" unicode="&#xea50;" d="M0 329l0-397 41 0 41 0 0 62 0 63 418 0 418 0 0-63 0-62 41 0 41 0 0 188 0 187-458 1-458 1-1 208-1 208-41 0-41 0 0-396m222 267c-37-9-69-35-86-69-7-15-9-25-9-52 0-39 9-61 35-88 44-43 110-49 160-13 81 58 66 178-26 216-19 8-55 11-74 6m196-121l0-125 291 0 292 0-2 79c-1 75-1 80-10 99-12 24-38 49-62 61l-19 9-245 1-245 1 0-125m-146 35c17-9 24-37 13-56-3-6-11-13-18-16-41-20-78 34-46 66 14 14 30 16 51 6m631-7c12-12 13-14 13-41l0-28-208-1-208-1 0 43 0 43 195-1 196-1 12-13m15-319l0-41-418 0-418 0 0 41 0 41 418 0 418 0 0-41" horiz-adv-x="1000" />

<glyph glyph-name="bedroom-2" unicode="&#xea51;" d="M1000 308h-917v375a42 42 0 0 1-83 0v-708a42 42 0 0 1 83 0v83h834v-83a42 42 0 0 1 83 0z m-708 84a125 125 0 1 0 125 125 125 125 0 0 0-125-125z m708 0h-458a42 42 0 0 0-42 41v125a42 42 0 0 0 42 42h333a125 125 0 0 0 125-125z" horiz-adv-x="1000" />

<glyph glyph-name="search-property" unicode="&#xea52;" d="M357 846c-39-6-91-23-128-42-86-44-147-107-188-194-76-160-42-352 85-474 65-61 136-97 223-113 50-8 120-5 172 8 43 11 108 41 136 63 10 8 20 14 22 14 1 0 58-55 126-123l123-123 30 30 30 30-123 124-124 124 18 27c54 81 76 160 72 258-11 243-232 425-474 391m141-89c117-31 203-115 239-234 9-30 10-41 11-89 0-46-2-60-9-85-59-207-284-308-473-212-187 95-240 338-109 504 47 60 124 106 201 121 40 8 99 5 140-5m-187-142l-104-78 0-135 0-134 209 0 209 0 0 135 0 134-101 76c-55 41-102 76-104 78-2 1-51-33-109-76m170-73l60-45 1-74 1-73-43 0-43 0 0 41 0 41-41 0-41 0 0-41 0-41-41 0-41 0 0 74 0 74 60 45c32 24 61 45 63 45 2 0 31-20 65-46" horiz-adv-x="1000" />

<glyph glyph-name="menu-5" unicode="&#xea53;" d="M97 471c-37-9-69-35-86-69-7-15-9-25-9-52 0-39 9-61 35-88 44-43 110-49 160-13 81 58 66 178-26 216-19 8-55 11-74 6m375 0c-37-9-69-35-86-69-7-15-9-25-9-52 0-39 9-61 35-88 44-43 110-49 160-13 81 58 66 178-26 216-19 8-55 11-74 6m375 0c-37-9-69-35-86-69-7-15-9-25-9-52 0-39 9-61 35-88 44-43 110-49 160-13 81 58 66 178-26 216-19 8-55 11-74 6m-696-65c39-18 48-67 18-99-16-17-34-22-59-18-18 4-42 28-46 47-9 52 41 92 87 70m375 0c39-18 48-67 18-99-16-17-34-22-59-18-18 4-42 28-46 47-9 52 41 92 87 70m375 0c39-18 48-67 18-99-16-17-34-22-59-18-18 4-42 28-46 47-9 52 41 92 87 70" horiz-adv-x="1000" />

<glyph glyph-name="circle-simple-right-2" unicode="&#xea54;" d="M417 827c-208-39-365-200-396-406-34-226 99-448 315-526 60-21 94-27 164-27 53 0 71 1 100 8 99 24 175 65 242 132 68 68 112 150 133 248 10 45 10 141 0 187-25 121-91 224-188 296-104 78-245 111-370 88m152-30c49-8 90-21 136-44 277-141 333-511 110-726-61-59-123-94-206-116-41-11-49-12-109-12-60 0-68 1-110 12-154 41-275 155-321 302-50 159-10 331 104 449 105 108 253 159 396 135m-18-219l-10-9 102-102 101-101-263 0-262 0 0-16 0-16 262 0 263 0-101-101-102-102 11-10 11-11 120 120 120 120-119 119c-66 66-120 119-122 119-1 0-6-4-11-10" horiz-adv-x="1000" />

<glyph glyph-name="detached-property" unicode="&#xea55;" d="M922 303h16a16 16 0 0 1 0 31h-875a16 16 0 0 1 0-31h15v-344h-15a16 16 0 0 1-16-15v-32a16 16 0 0 1 16-15h343v234a16 16 0 0 0 16 16h156a16 16 0 0 0 16-16v-234h344a16 16 0 0 1 15 15v32a16 16 0 0 1-15 15h-16z m-609-265a16 16 0 0 0-16-16h-109a16 16 0 0 0-16 16v156a16 16 0 0 0 16 15h109a16 16 0 0 0 16-15z m515 0a16 16 0 0 0-15-16h-110a16 16 0 0 0-15 16v156a16 16 0 0 0 15 15h110a16 16 0 0 0 15-15z m-328 700l-297-103v-269h594v269z m-62-265a14 14 0 0 0-14-14h-82a14 14 0 0 0-14 14v113a14 14 0 0 0 14 14h82a14 14 0 0 0 14-14z m234 0a14 14 0 0 0-14-14h-82a14 14 0 0 0-13 14v113a14 14 0 0 0 13 14h82a14 14 0 0 0 14-14z m187 174a15 15 0 0 0-5 1l-354 123-354-123a16 16 0 1 0-10 29l359 125a15 15 0 0 0 10 0l360-125a16 16 0 0 0-6-30z" horiz-adv-x="1000" />

<glyph glyph-name="armchair" unicode="&#xea56;" d="M898 428h-15c-47 0-86-39-86-86v-195h-594v195c0 47-39 86-86 86h-15c-47 0-86-39-86-86v-351c0-10 6-16 15-16h78v-63c0-9 7-15 16-15s16 6 16 15v63h718v-63c0-9 7-15 16-15s16 6 16 15v63h78c9 0 15 6 15 16v351c0 47-39 86-86 86z m-601-125c-24 0-45-8-63-20v-105h532v105c-18 12-39 20-63 20h-406z m-180 156c64 0 117-53 117-117v-23c19 9 41 15 63 15h406c22 0 44-4 63-15v23c0 64 53 117 117 117h15c4 0 5 0 8 0v235c0 61-48 109-109 109h-594c-61 0-109-48-109-109v-235c3 0 4 0 8 0h15z" horiz-adv-x="1000" />

<glyph glyph-name="measure-big" unicode="&#xea57;" d="M964-92l-906 906c-5 5-11 6-17 4-6-3-10-9-10-15v-250h47c9 0 16-7 16-15s-7-16-16-16h-47v-94h110c8 0 15-7 15-15s-7-16-15-16h-110v-94h47c9 0 16-7 16-15s-7-16-16-16h-47v-94h110c8 0 15-7 15-15s-7-16-15-16h-110v-94h47c9 0 16-7 16-15s-7-16-16-16h-47v-125c0-9 7-16 16-16h906c6 0 12 4 15 10 2 6 1 12-4 17z m-465 186c-3-6-8-10-15-10h-218c-9 0-16 7-16 16v219c0 6 4 12 10 14 6 3 12 1 17-3l218-219c5-4 6-11 4-17z" horiz-adv-x="1000" />

<glyph glyph-name="b-meeting-2" unicode="&#xea58;" d="M958 829h-500c-11 0-20-9-20-21v-437c0-8 4-15 11-19 3-1 6-2 9-2 5 0 9 2 13 4l182 142h305c12 0 21 9 21 21v291c0 12-9 21-21 21z m-559-808c-33 27-90 58-170 58s-136-31-169-58c-25-19-39-49-39-81v-48c0-12 9-21 21-21h375c11 0 21 9 21 21v48c0 32-15 62-39 81z m-295 246a125 125 0 0 1 250 0 125 125 0 0 1-250 0m837-246c-34 27-90 58-170 58s-137-31-170-58c-24-19-38-49-38-81v-48c0-12 9-21 20-21h375c12 0 21 9 21 21v48c0 32-14 62-38 81z m-295 246a125 125 0 0 1 250 0 125 125 0 0 1-250 0" horiz-adv-x="1000" />

<glyph glyph-name="bulb-63" unicode="&#xea59;" d="M125 329h-83c-12 0-21 10-21 21s9 21 21 21h83c12 0 21-9 21-21s-9-21-21-21z m110 265c-5 0-11 2-15 6l-59 59c-8 9-8 22 0 30s22 8 30 0l59-59c8-8 8-21 0-30-4-4-10-6-15-6z m265 110c-11 0-21 10-21 21v83c0 12 10 21 21 21s21-9 21-21v-83c0-11-9-21-21-21z m265-110c-5 0-10 2-15 6-8 9-8 22 0 30l59 59c9 8 22 8 30 0s8-21 0-30l-59-59c-4-4-9-6-15-6z m193-265h-83c-11 0-21 10-21 21s10 21 21 21h83c12 0 21-9 21-21s-9-21-21-21z m-458 292c-149 0-271-122-271-271 0-109 67-208 167-250v-125h208v125c100 42 167 141 167 250 0 149-122 271-271 271z m-42-750h84c34 0 62 28 62 62h-208c0-34 28-62 62-62z" horiz-adv-x="1000" />

<glyph glyph-name="new-construction" unicode="&#xea5a;" d="M583 517h-375a21 21 0 0 1-20-21v-584a21 21 0 0 1 20-20h375a21 21 0 0 1 21 20v584a21 21 0 0 1-21 21z m-104-459h-166a21 21 0 0 0 0 42h166a21 21 0 0 0 0-42z m0 125h-166a21 21 0 0 0 0 42h166a21 21 0 0 0 0-42z m0 125h-166a21 21 0 0 0 0 42h166a21 21 0 0 0 0-42z m485 375l-458 125a21 21 0 0 1-27-20v-230h104a63 63 0 0 0 63-62v-604h312a21 21 0 0 1 21 20v751a21 21 0 0 1-15 20z m-193-604a21 21 0 0 0-42 0v459a21 21 0 0 0 42 0z m125 0a21 21 0 0 0-42 0v417a21 21 0 0 0 42 0z m-854 271a21 21 0 0 1-21-21v-417a21 21 0 0 1 21-20h104v458z" horiz-adv-x="1000" />

<glyph glyph-name="quite-happy" unicode="&#xea5b;" d="M500 808a458 458 0 1 1 458-458 459 459 0 0 1-458 458z m-271-416a63 63 0 1 0 63-63 63 63 0 0 0-63 63z m271-334a167 167 0 0 0-167 167h334a167 167 0 0 0-167-167z m208 271a63 63 0 1 0 63 63 63 63 0 0 0-63-63z" horiz-adv-x="1000" />

<glyph glyph-name="shape-star-1" unicode="&#xea5c;" d="M973 486l-307 45-138 279a33 33 0 0 1-56 0l-137-279-308-45a31 31 0 0 1-18-53l223-217-52-307a31 31 0 0 1 45-32l275 144 275-144a31 31 0 0 1 46 32l-53 307 223 217a31 31 0 0 1-18 53z" horiz-adv-x="1000" />

<glyph glyph-name="shape-star-2" unicode="&#xea5d;" d="M420 675l-78-155-169-24c-93-13-171-25-172-27-2-1 17-21 40-44 24-23 80-78 125-122l81-80-29-172c-16-94-29-172-29-173 1 0 71 36 156 81l155 82 155-82c85-45 155-81 156-81 0 1-13 79-29 173l-29 172 81 80c45 44 101 99 125 122 24 23 42 43 40 44-1 2-78 14-172 27l-169 24-78 155c-43 86-79 156-80 156-1 0-37-70-80-156m138-98c54-107 58-113 69-115 6-1 63-10 125-19 62-9 114-17 115-17 1-1-40-42-90-91l-91-89 21-124c11-68 20-125 18-126-1-1-52 24-113 57l-112 59-112-59c-61-33-112-58-113-57-2 1 6 55 17 119 12 64 21 120 21 125 0 5-30 37-91 96-50 48-90 89-89 90 1 0 53 8 115 17 62 9 119 18 125 19 12 2 15 8 69 115 31 62 57 113 58 113 1 0 27-51 58-113" horiz-adv-x="1000" />

<glyph glyph-name="star-rate-1" unicode="&#xea5e;" d="M617 475l-117 375-117-375-383 0 305-229-120-371 315 229 315-229-120 371 305 229-383 0z" horiz-adv-x="1000" />

<glyph glyph-name="star-rate-2" unicode="&#xea5f;" d="M441 660l-57-183-191-2-190-2 148-111c81-61 149-113 151-114 2-1-23-84-56-185-32-100-59-183-58-184 1 0 71 50 157 112l155 113 155-113c86-62 156-112 157-112 1 1-25 84-58 184-33 101-58 184-56 185 2 1 70 53 151 114l148 111-190 2-191 2-57 183c-31 100-58 182-59 182-1 0-28-82-59-182m78-82c9-30 25-79 34-110l18-55 119-1 120-1-93-70c-52-39-94-71-95-71 0 0 16-51 36-114 20-62 36-113 35-114 0 0-43 30-95 68-52 37-96 68-98 68-2 0-46-31-98-68-52-38-95-68-95-68-1 1 15 52 35 114 20 63 36 114 36 114-1 0-43 32-94 71l-94 70 120 1 119 1 16 49c8 28 24 77 34 110 10 32 20 59 21 59 1 0 10-24 19-53" horiz-adv-x="1000" />

<glyph glyph-name="home-2" unicode="&#xea60;" d="M958 392a21 21 0 0 0-13 4l-445 365-445-365a21 21 0 0 0-26 33l458 375a21 21 0 0 0 26 0l459-375a21 21 0 0 0-14-37z m-458 315l-375-307v-467a42 42 0 0 1 42-41h229v229a21 21 0 0 0 21 21h166a21 21 0 0 0 21-21v-229h229a42 42 0 0 1 42 41v467z m63-419h-125a21 21 0 0 0-21 20v125a21 21 0 0 0 21 21h125a21 21 0 0 0 20-21v-125a21 21 0 0 0-20-20z" horiz-adv-x="1000" />

<glyph glyph-name="home-3" unicode="&#xea61;" d="M500 707l-375-307v-467a42 42 0 0 1 42-41h229v229a21 21 0 0 0 21 21h166a21 21 0 0 0 21-21v-229h229a42 42 0 0 1 42 41v467z m63-419h-125a21 21 0 0 0-21 20v125a21 21 0 0 0 21 21h125a21 21 0 0 0 20-21v-125a21 21 0 0 0-20-20z m409 141l-459 375a21 21 0 0 1-26 0l-237-194v94a21 21 0 0 1-21 21h-62a21 21 0 0 1-21-21v-179l-117-96a21 21 0 0 1 26-33l445 365 445-365a21 21 0 0 1 27 33z" horiz-adv-x="1000" />

<glyph glyph-name="home" unicode="&#xea62;" d="M500 707l-375-307v-467a42 42 0 0 1 42-41h229v229a21 21 0 0 0 21 21h166a21 21 0 0 0 21-21v-229h229a42 42 0 0 1 42 41v467z m458-315a21 21 0 0 0-13 4l-445 365-445-365a21 21 0 0 0-26 33l458 375a21 21 0 0 0 26 0l459-375a21 21 0 0 0-14-37z" horiz-adv-x="1000" />

<glyph glyph-name="home-2-2" unicode="&#xea63;" d="M266 624c-128-105-233-193-233-196 0-5 18-31 22-31 1 0 101 82 223 182l222 181 222-181c122-100 222-182 223-182 3 0 19 22 22 28 2 4-67 63-232 198-129 106-235 192-236 192 0-1-105-86-233-191m129-211l0-106 105 0 106 0 0 106 0 105-106 0-105 0 0-105m168 0l0-63-63 0-62 0 0 63 0 62 62 0 63 0 0-62m-438-282l0-238 375 0 375 0 0 238 0 239-21 0-22 0 0-219 0-219-103 0-104 0 0 125 0 125-125 0-125 0 0-125 0-125-103 0-104 0 0 219 0 219-21 0-22 0 0-239m457-93l0-106-82 0-82 0 0 106 0 105 82 0 82 0 0-105" horiz-adv-x="1000" />

<glyph glyph-name="home-3-2" unicode="&#xea64;" d="M354 696l-145-119-1 64-1 65-20 0-19 0 0-82 0-81-69-56c-48-39-68-58-66-62 3-6 19-28 22-28 1 0 101 82 223 182l222 181 222-181c122-100 222-182 223-182 3 0 19 22 22 28 2 4-67 63-232 198-129 106-235 192-236 192 0-1-66-54-145-119m41-283l0-106 105 0 106 0 0 106 0 105-106 0-105 0 0-105m168 0l0-63-63 0-62 0 0 63 0 62 62 0 63 0 0-62m-438-282l0-238 375 0 375 0 0 238 0 239-21 0-22 0 0-219 0-219-103 0-104 0 0 125 0 125-125 0-125 0 0-125 0-125-103 0-104 0 0 219 0 219-21 0-22 0 0-239m457-93l0-106-82 0-82 0 0 106 0 105 82 0 82 0 0-105" horiz-adv-x="1000" />

<glyph glyph-name="home-4" unicode="&#xea65;" d="M266 624c-128-105-233-193-233-196 0-5 18-31 22-31 1 0 101 82 223 182l222 181 222-181c122-100 222-182 223-182 3 0 19 22 22 28 2 4-67 63-232 198-129 106-235 192-236 192 0-1-105-86-233-191m-141-493l0-238 375 0 375 0 0 238 0 239-21 0-22 0 0-219 0-219-103 0-104 0 0 125 0 125-125 0-125 0 0-125 0-125-103 0-104 0 0 219 0 219-21 0-22 0 0-239m457-93l0-106-82 0-82 0 0 106 0 105 82 0 82 0 0-105" horiz-adv-x="1000" />

<glyph glyph-name="home-search" unicode="&#xea66;" d="M266 624c-128-105-233-193-233-196 0-5 18-31 22-31 1 0 101 82 223 182l222 181 222-181c122-100 222-182 223-182 3 0 19 22 22 28 2 4-67 63-232 198-129 106-235 192-236 192 0-1-105-86-233-191m177-217c-122-31-148-192-42-262 42-28 98-31 145-7l21 10 53-52 52-52 15 14 14 15-52 52-52 52 12 26c46 92-16 200-119 207-16 2-35 0-47-3m-318-276l0-238 375 0 375 0 0 238 0 239-21 0-22 0 0-219 0-219-332 0-332 0 0 219 0 219-21 0-22 0 0-239m395 230c84-38 82-159-3-191-82-30-161 43-136 127 16 58 84 89 139 64" horiz-adv-x="1000" />

<glyph glyph-name="e-add" unicode="&#xea67;" d="M938 413l-375 0 0 375-125 0 0-375-375 0 0-125 375 0 0-376 125 0 0 376 375 0 0 125z" horiz-adv-x="1000" />

<glyph glyph-name="e-delete" unicode="&#xea68;" d="M63 413h875v-125h-875v125z" horiz-adv-x="1000" />

<glyph glyph-name="i-delete-2" unicode="&#xea69;" d="M281 319h438c19 0 31 12 31 31s-12 31-31 31h-438c-18 0-31-12-31-31s13-31 31-31z" horiz-adv-x="1000" />

<glyph glyph-name="i-add-2" unicode="&#xea6a;" d="M281 319h188v-188c0-18 12-31 31-31s31 13 31 31v188h188c19 0 31 12 31 31s-12 31-31 31h-188v188c0 19-12 31-31 31s-31-12-31-31v-188h-188c-18 0-31-12-31-31s13-31 31-31z" horiz-adv-x="1000" />

<glyph glyph-name="arrow-right" unicode="&#xea6b;" d="M633 653l-21-22 124-125 125-125-399 0-399 0 0-31 0-31 399 0 399 0-125-125-125-125 23-23 22-22 163 163 163 163-162 162c-89 89-163 162-164 162-1 0-11-9-23-21" horiz-adv-x="1000" />

<glyph glyph-name="arrow-left" unicode="&#xea6c;" d="M180 512l-162-162 163-163 163-163 22 22 23 23-125 125-125 125 399 0 400 0 0 31 0 31-400 0-399 0 125 125 125 125-22 22c-11 12-22 21-23 21-1 0-75-73-164-162" horiz-adv-x="1000" />

<glyph glyph-name="arrow-up" unicode="&#xea6d;" d="M336 668l-162-162 22-22 23-23 125 125 125 125 0-399 0-400 31 0 31 0 0 400 0 399 125-125 125-125 23 23 22 22-162 162c-89 90-163 163-164 163-1 0-75-73-164-163" horiz-adv-x="1000" />

<glyph glyph-name="arrow-down" unicode="&#xea6e;" d="M469 388l0-399-125 125-125 125-23-23-22-22 163-163 163-163 163 163 163 163-22 22-23 23-125-125-125-125 0 399 0 400-31 0-31 0 0-400" horiz-adv-x="1000" />

<glyph glyph-name="a-check" unicode="&#xea6f;" d="M385 844c-37-8-56-16-84-35-125-83-149-248-57-379 90-126 237-147 343-49 121 113 134 286 29 393-49 49-100 72-169 74-25 1-47 0-62-4m89-61c37-6 64-21 95-52 29-29 44-56 52-91 20-94-38-207-127-247-15-8-27-9-57-9-34-1-39 0-64 13-69 34-123 122-123 202 0 52 17 93 56 132 48 48 102 65 168 52m-120-529c-115-10-227-37-291-70-18-9-38-31-50-54l-11-20-1-115-2-114 251 0 250 0 0 31 0 32-219 0-218 0 0 73c0 69 0 74 8 89 11 19 28 29 81 46 134 45 318 54 477 25 33-7 50-8 51-5 4 5 13 53 11 55-4 4-116 21-162 25-43 4-139 5-175 2m473-188l-108-109-47 47-47 47-22-22-23-23 69-69 70-69 132 131 131 132-21 22c-12 12-22 21-23 21-1 0-51-48-111-108" horiz-adv-x="1000" />

<glyph glyph-name="a-add" unicode="&#xea70;" d="M385 844c-37-8-56-16-84-35-125-83-149-248-57-379 90-126 237-147 343-49 121 113 134 286 29 393-49 49-100 72-169 74-25 1-47 0-62-4m89-61c37-6 64-21 95-52 29-29 44-56 52-91 20-94-38-207-127-247-15-8-27-9-57-9-34-1-39 0-64 13-69 34-123 122-123 202 0 52 17 93 56 132 48 48 102 65 168 52m339-558l0-62-63 0-62 0 0-32 0-31 62 0 63 0 0-62 0-63 31 0 31 0 0 63 0 62 63 0 62 0 0 31 0 32-62 0-63 0 0 62 0 63-31 0-31 0 0-63m-459 29c-130-13-227-37-291-70-18-9-38-31-50-54l-11-20-1-115-2-114 376 0 375 0 0 31 0 32-344 0-343 0 0 73c0 69 0 74 8 89 11 19 28 29 81 46 45 15 99 27 157 35 66 9 277 4 306-7 4-2 6 5 10 28 2 16 3 31 2 32-8 8-225 19-273 14" horiz-adv-x="1000" />

<glyph glyph-name="chart-bar-32" unicode="&#xea71;" d="M583 767h-166c-23 0-42-19-42-42v-750c0-23 19-42 42-42h166c23 0 42 19 42 42v750c0 23-19 42-42 42z m-375-459h-166c-23 0-42-18-42-41v-292c0-23 19-42 42-42h166c23 0 42 19 42 42v292c0 23-19 41-42 41z m750 209h-166c-23 0-42-19-42-42v-500c0-23 19-42 42-42h166c23 0 42 19 42 42v500c0 23-19 42-42 42z" horiz-adv-x="1000" />

<glyph glyph-name="chart-bar-32-2" unicode="&#xea72;" d="M375 350l0-418 125 0 125 0 0 418 0 418-125 0-125 0 0-418m168 0l0-332-43 0-43 0 0 332 0 332 43 0 43 0 0-332m207-125l0-293 125 0 125 0 0 293 0 293-125 0-125 0 0-293m168 0l0-207-43 0-43 0 0 207 0 207 43 0 43 0 0-207m-918-105l0-188 125 0 125 0 0 188 0 187-125 0-125 0 0-187m168 2l0-104-43 0-43 0 0 104 0 103 43 0 43 0 0-103" horiz-adv-x="1000" />

<glyph glyph-name="cart-simple-add" unicode="&#xea73;" d="M43 809l0-41 43 0c24 0 43 0 43-1 0 0 19-141 42-311l42-311 327-1c309-1 327-1 329 6 1 4 13 65 28 137l26 131 17 20c23 25 47 75 54 109 34 162-94 311-258 302-107-6-198-79-227-182l-6-24-136 0c-75 0-136 1-136 1 0 3-24 178-26 191l-3 15-79 0-80 0 0-41m734-45c58-9 113-56 130-109 32-98-30-203-131-219-111-18-206 77-190 190 11 76 78 136 160 142 3 0 17-2 31-4m-70-80l0-41-41 0-41 0 0-43 0-43 41 0 41 0 0-41 0-41 43 0 43 0 0 41 0 41 41 0 41 0 0 43 0 43-41 0-41 0 0 41 0 41-43 0-43 0 0-41m-198-151c19-66 68-125 128-155 53-26 109-34 163-23 16 4 24 4 24 1 0-2-5-32-12-67l-13-64-257 0c-208 0-257 1-257 5 0 6-37 288-41 312l-2 15 130 0 131 0 6-24m-252-438c-32-9-60-33-78-67-8-13-9-22-9-53 0-31 1-40 9-54 23-42 60-67 105-70 35-2 66 9 92 34 23 21 32 37 38 67 5 26 1 58-12 82-10 19-38 45-59 54-24 11-62 14-86 7m500 0c-32-9-60-33-78-67-8-13-9-22-9-53 0-31 1-40 9-54 23-42 60-67 105-70 35-2 66 9 92 34 23 21 32 37 38 67 5 26 1 58-12 82-10 19-38 45-59 54-24 11-62 14-86 7m-451-82c17-8 26-21 26-39 0-17-15-36-31-40-24-5-51 17-51 42 0 15 14 34 28 38 7 2 14 3 14 4 1 0 7-2 14-5m500 0c17-8 26-21 26-39 0-17-15-36-31-40-24-5-51 17-51 42 0 15 14 34 28 38 7 2 14 3 14 4 1 0 7-2 14-5" horiz-adv-x="1000" />

<glyph glyph-name="cart-add" unicode="&#xea74;" d="M750 788l0-63-62 0-63 0 0-41 0-41 63 0 62 0 0-62 0-63 41 0 41 0 1 62 1 61 62 1 61 1 0 41 0 41-62 0-63 0 0 63 0 62-41 0-41 0 0-62m-708 20l-30-30 56-57 57-56 0-195 0-194-55-110-54-109 470 0 471 0 0 43 0 43-402 0c-222 0-403 1-403 2 0 1 9 20 20 41l20 39 320 0 320 0 0 84 0 84-41 0-41 0 0-43 0-43-270 1-271 1 0 166 0 166 146 1 145 1 0 41 0 41-157 0-157 0-57 57-57 56-30-30m108-794c-78-19-90-120-19-155 40-19 83-6 106 32 28 48 5 106-47 121-21 7-22 7-40 2m660-1c-23-8-39-22-50-43-13-26-13-47 1-73 14-28 36-44 63-46 56-6 103 47 90 101-11 45-61 74-104 61" horiz-adv-x="1000" />

<glyph glyph-name="cart-add-2" unicode="&#xea75;" d="M750 788l0-63-62 0-63 0 0-41 0-41 63 0 62 0 0-62 0-63 41 0 41 0 1 62 1 61 62 1 61 1 0 41 0 41-62 0-63 0 0 63 0 62-41 0-41 0 0-62m-708 20l-30-30 56-57 57-56 0-195 0-194-55-110-54-109 470 0 471 0 0 43 0 43-402 0c-222 0-403 1-403 2 0 1 9 20 20 41l20 39 320 0 320 0 0 84 0 84-41 0-41 0 0-43 0-43-270 1-271 1 0 166 0 166 146 1 145 1 0 41 0 41-157 0-157 0-57 57-57 56-30-30m108-794c-78-19-90-120-19-155 40-19 83-6 106 32 28 48 5 106-47 121-21 7-22 7-40 2m660-1c-23-8-39-22-50-43-13-26-13-47 1-73 14-28 36-44 63-46 56-6 103 47 90 101-11 45-61 74-104 61" horiz-adv-x="1000" />

<glyph glyph-name="cart-speed-1" unicode="&#xea76;" d="M0 809l0-41 83-1 83-1 1-61 1-62 326 0c219 0 326-1 326-4 0-2-17-74-39-161-21-86-39-157-38-157 2-2 79-22 79-21 1 1 25 97 54 213l53 212-340 0-339 0 0 63 0 62-125 0-125 0 0-41m168-293l0-41 125 0 125 0 0 41 0 41-125 0-125 0 0-41m-86-166l0-43 125 0 125 0 0 43 0 43-125 0-125 0 0-43m-82-166l0-41 500 0 500 0 0 41 0 41-500 0-500 0 0-41m222-88c-37-9-69-35-86-69-7-15-9-25-9-52 0-40 9-61 35-88 44-43 110-49 160-13 81 57 66 178-26 216-19 8-55 11-74 6m625 0c-37-9-69-35-86-69-7-15-9-25-9-52 0-40 9-61 35-88 44-43 110-49 160-13 81 57 66 178-26 216-19 8-55 11-74 6m-575-86c17-9 24-37 13-56-3-6-11-13-18-16-41-20-78 34-46 66 14 14 30 16 51 6m625 0c17-9 24-37 13-56-3-6-11-13-18-16-41-20-78 34-46 66 14 14 30 16 51 6" horiz-adv-x="1000" />

<glyph glyph-name="cart-speed-2" unicode="&#xea77;" d="M0 225h1000v-83h-1000v83z m83 167h250v-84h-250v84z m84 291c0-23 18-41 41-41h614l-81-322 81-20 93 373c4 13 1 26-7 36s-20 16-33 16h-625v83c0 23-19 42-42 42h-208v-83h167v-84z m0-125h250v-83h-250v83z m-42-604a104 104 0 0 1 208 0 104 104 0 0 1-208 0m625 0a104 104 0 0 1 208 0 104 104 0 0 1-208 0" horiz-adv-x="1000" />

<glyph glyph-name="cart-refresh" unicode="&#xea78;" d="M208 642h209v83h-209v83c0 23-18 42-41 42h-167v-83h125v-584c0-23 19-41 42-41h833v83h-792v417z m542 125c34 0 66-14 89-37l-67-49 178-39 18 181-62-44c-39 44-95 71-156 71-95 0-178-64-202-156l81-21c14 55 64 94 121 94z m0-375c95 0 178 64 202 156l-81 21c-14-55-64-94-121-94-34 0-65 14-89 37l67 49-178 39-17-181 61 44c39-44 96-71 156-71z m-625-438a104 104 0 0 1 208 0 104 104 0 0 1-208 0m667 0a104 104 0 0 1 208 0 104 104 0 0 1-208 0" horiz-adv-x="1000" />

<glyph glyph-name="ic_format_quote_24px" unicode="&#xea79;" d="M250 142h125l83 166v250h-250v-250h125z m333 0h125l84 166v250h-250v-250h125z" horiz-adv-x="1000" />

<glyph glyph-name="quote-1" unicode="&#xea7a;" d="M375-108h-333c-23 0-42 18-42 41v417c0 210 79 349 234 414 21 8 46-2 55-23 8-21-2-46-23-54-113-47-172-144-181-295h290c23 0 42-19 42-42v-417c0-23-19-41-42-41z m583 0h-333c-23 0-42 18-42 41v417c0 210 79 349 234 414 22 8 46-2 55-23 9-21-1-46-23-54-113-47-172-144-181-295h290c23 0 42-19 42-42v-417c0-23-19-41-42-41z" horiz-adv-x="1000" />

<glyph glyph-name="quote-2" unicode="&#xea7b;" d="M203 748c-104-54-168-146-194-279-6-31-7-67-8-305l-1-271 209 0 209 0-1 249-1 249-165 1-165 1 0 13c0 7 3 27 6 46 18 104 66 177 145 221 15 8 27 15 28 15 1 1-29 72-32 74 0 1-14-5-30-14m580-2c-97-50-162-141-187-262-11-53-14-128-14-359l0-232 209 0 209 0 0 250 0 250-166 0-167 0 3 26c5 44 20 99 40 138 23 47 66 92 109 115 16 8 29 15 29 16 0 8-30 72-34 72-3 0-17-6-31-14m-451-605l0-166-125 0-125 0 0 166 0 166 125 0 125 0 0-166m586 0l0-166-125 0-125 0 0 166 0 166 125 0 125 0 0-166" horiz-adv-x="1000" />

<glyph glyph-name="a-chat" unicode="&#xea7f;" d="M0 454l0-354 104 0 103 0 0-123c0-68 1-123 2-123 1 0 79 55 174 123l172 123 222 0 223 0 0 354 0 353-500 0-500 0 0-353m917 1l-1-271-195-1-194-1-115-82c-63-45-116-82-117-82-1 0-2 37-2 82l0 82-105 0-106 0 0 272 0 271 418 0 418 0-1-270" horiz-adv-x="1000" />

<glyph glyph-name="b-comment" unicode="&#xea80;" d="M389 846c-201-28-354-154-383-316-16-88 5-174 61-249l15-20 0-135 0-135 115 57 115 58 23-22c27-27 56-46 93-64 66-32 114-42 203-43l66-1 111-55 110-55 0 109 0 110 19 21c82 90 83 222 2 320l-22 27-2 33c-6 170-150 315-353 354-39 8-135 11-173 6m137-84c101-15 177-54 241-123 47-51 68-106 64-176-4-68-23-111-77-164-95-96-235-134-387-105l-49 9-73-38c-39-21-73-38-74-38-2 0-3 37-3 82l0 81-21 25c-25 29-46 66-55 99-8 28-9 81-2 114 22 105 136 201 267 228 68 13 109 15 169 6m388-473c8-51-9-95-53-142l-29-30 0-57c0-32-1-58-2-58-1 0-30 15-65 32l-63 31-41-4c-65-7-133 4-187 28l-19 9 18 1c79 5 152 23 213 52 86 40 147 95 188 167l18 33 9-20c5-11 11-30 13-42" horiz-adv-x="1000" />

<glyph glyph-name="chat" unicode="&#xea81;" d="M0 454l0-354 157 0 158 0 91-115c50-64 93-116 94-116 1 0 44 52 94 116l92 115 157 0 157 0 0 354 0 353-500 0-500 0 0-353m917 1l-1-271-136-2-135-2-71-88c-39-48-72-88-73-89-2 0-35 40-75 89l-72 90-136 0-136 0 0 272 0 271 418 0 418 0-1-270" horiz-adv-x="1000" />

<glyph glyph-name="b-chat" unicode="&#xea82;" d="M0 516l0-291 84 0 84 0 1-123 1-123 172 123 172 123 159 0 159 0 0 291 0 291-416 0-416 0 0-291m750 0l0-209-132 0-132 0-118-84-118-83 0 83 0 84-84 0-84 0 0 209 0 209 334 0 334 0 0-209m168-103l0-270-84 0-84 0 0-64c0-36-1-65-2-65-1 0-45 29-99 65l-97 64-46-1-47-1 0-41 0-41 36-1 37-1 149-100 149-99 1 99 1 100 84 0 84 0 0 313 0 312-41 0-41 0 0-269" horiz-adv-x="1000" />

<glyph glyph-name="f-comment" unicode="&#xea83;" d="M408 801c-163-25-304-120-368-246-83-165-32-356 128-474 31-23 89-55 129-70 77-30 188-43 268-32 71 10 50 15 212-51 80-32 146-58 147-58 0 1-6 61-15 133l-15 132 15 19c85 103 111 226 73 346-49 156-202 273-394 301-49 7-132 7-180 0m164-82c156-23 277-108 324-225 15-37 19-59 19-101 0-78-26-140-86-204l-23-24 9-74c5-41 9-79 9-83 0-8-7-6-96 30l-96 39-24-6c-42-10-105-14-154-10-227 21-391 183-368 362 15 117 101 217 229 267 35 14 96 29 130 32 35 4 92 2 127-3m-279-244l0-43 207 0 207 0 0 43 0 43-207 0-207 0 0-43m0-166l0-41 145 0 144 0 0 41 0 41-144 0-145 0 0-41" horiz-adv-x="1000" />

<glyph glyph-name="f-chat" unicode="&#xea84;" d="M0 454l0-354 157 0 158 0 91-115c50-64 93-116 94-116 1 0 44 52 94 116l92 115 157 0 157 0 0 354 0 353-500 0-500 0 0-353m917 1l-1-271-136-2-135-2-71-88c-39-48-72-88-73-89-2 0-35 40-75 89l-72 90-136 0-136 0 0 272 0 271 418 0 418 0-1-270m-667 104l0-41 250 0 250 0 0 41 0 41-250 0-250 0 0-41m0-209l0-43 166 0 166 0 0 43 0 43-166 0-166 0 0-43" horiz-adv-x="1000" />

<glyph glyph-name="subtitles" unicode="&#xea85;" d="M0 475l0-375 104 0 103 0 0-123c0-68 1-123 2-123 1 0 79 55 174 123l172 123 222 0 223 0 0 375 0 375-500 0-500 0 0-375m916 0l0-291-195-1-194-1-115-82c-63-45-116-82-117-82-1 0-2 37-2 82l0 82-105 0-106 0 0 293 0 293 417-1 417-1 0-291m-748-125l0-43 207 0 207 0 0 43 0 43-207 0-207 0 0-43m500 0l0-43 82 0 82 0 0 43 0 43-82 0-82 0 0-43" horiz-adv-x="1000" />

<glyph glyph-name="voice-recognition" unicode="&#xea86;" d="M87 844c-38-12-75-51-83-90-3-13-4-109-3-289l1-269 13-27c9-19 19-31 33-42 31-25 44-27 163-27l104 0 91-115c50-64 93-116 94-116 1 0 44 52 94 115l92 115 111 2c104 1 112 2 129 9 25 12 49 37 62 64l10 22 0 281 0 281-9 20c-12 24-38 49-62 61l-19 9-402 1c-325 0-406 0-419-5m816-91l13-12 0-266 0-265-13-13-12-13-123-2-123-2-71-88c-39-48-72-88-73-89-2 0-35 40-75 89l-72 90-117 0c-130 0-137 1-149 26-5 11-6 41-5 272l1 260 10 11c5 5 13 12 17 13 5 2 182 3 394 3l386-1 12-13m-528-278l0-207 41 0 41 0 0 207 0 207-41 0-41 0 0-207m332 0l0-168 42 1 42 1 0 166 0 166-42 1-42 1 0-168m-500 0l0-125 43 0 43 0 0 125 0 125-43 0-43 0 0-125m336 0l0-82 41 0 41 0 0 82 0 82-41 0-41 0 0-82" horiz-adv-x="1000" />

<glyph glyph-name="n-edit" unicode="&#xea87;" d="M542 577l-246-245-30-123c-17-67-31-123-30-123 0-1 56 13 123 30l123 30 245 246c135 135 246 247 246 249 0 5-177 182-182 182-2 0-114-111-249-246m284 97l31-31-212-212-213-212-39-9c-21-5-39-8-40-7-1 1 2 19 7 40l9 39 211 212c116 116 212 212 213 212 1 0 16-15 33-32m-783-386l0-395 395 0 394 0 0 188 0 187-41 0-41 0 0-146 0-147-312 0-313 0 0 313 0 312 147 0 146 0 0 41 0 41-187 0-188 0 0-394" horiz-adv-x="1000" />

<glyph glyph-name="d-edit" unicode="&#xea88;" d="M542 577l-246-245-30-123c-17-67-31-123-30-123 0-1 56 13 123 30l123 30 245 246c135 135 246 247 246 249 0 5-177 182-182 182-2 0-114-111-249-246m284 97l31-31-33-33-33-33-32 32-32 32 32 32c17 18 33 33 34 33 1 0 16-15 33-32m-783-386l0-395 395 0 394 0 0 188 0 187-41 0-41 0 0-146 0-147-312 0-313 0 0 313 0 312 147 0 146 0 0 41 0 41-187 0-188 0 0-394m658 261l31-31-150-150-150-149-39-9c-21-5-39-8-40-7-1 1 2 19 7 40l9 39 148 149c82 82 150 150 151 150 1 0 16-15 33-32" horiz-adv-x="1000" />

<glyph glyph-name="globe-1" unicode="&#xf018;" d="M0 350q0 95 37 182t100 149 150 100 182 37 182-37 149-100 100-149 37-182q0-95-37-182t-100-150-149-100-182-37-182 37-150 100-100 150-37 182z m88 0q0-76 29-146t79-119 118-82 143-33q-7 8-11 33-1 7-2 25t-4 27q-1 7-17 55-5 15-11 19t-23 5q-8 1-24 1t-28 1-26 2-24 6-21 10-17 18-8 26q-11 62 38 103 25 21 52 28t64 6q24 0 42-14 22-18 44-19 5 0 22-2t28-2 26 1 23 7v7q0 2 1 7t1 10 0 7-6 6q-4 2-20 1t-20 4q-8 8 3 16t30 16 21 10q14 14-6 18-19 4-38-4-4-2-7-4-8-8-17-29-3-6-9-16t-9-15q-2 2-6 6t-5 6q-3 3-11 20-1 2-3 6t-2 6-3 7-4 4-5 3-7 0q-1-11 7-23t7-20q1-13-5-12t-15 13q-2 3-5 9t-5 9-6 6-9 4-12 0q-13-2-20-7-2-2-7-8t-10-8q-3-17-27-16-1 0-6 0t-8 1-8 1-7 2-4 4q-3 5 2 21t8 21 11 7 19 1 13-1q2 9-4 17t-8 10q-1 5-1 8t3 4 7 1h7t6 0q18 4 30 16 0 0 4 3t4 3l5 4t6 2 5 2 6-1q2-1 6-5t6-4q4-1 16 3 13 4 19 10t13 18q13 20 4 34-6 9-15 6t-14-12q-2-3-3-11t-4-12-6-8q-5-4-15-4t-17 2q-4 2-6 6t-2 7 0 10 1 9q0 4 1 7t2 6 4 6 4 4 5 5 5 5q8 8 16 12t20 4 17-1 20-4 18-4q17-3 36 18 3 4 9 8t8 9 2 11q0 7-1 24t-2 28 2 26 7 23q-62 23-128 23-47 0-95-12l0-2q0-19 2-21 4-6 16-8t22-2 18-7 5-18q-4-14-19-30t-32-29q-20-15-49-18-1 0-6-1t-7-1-8 0-9 0-8 1-7 1-6 3-4 6-1 7q1 8 9 16t17 10 21 7 17 5q1 12-4 17t-12 1-16-5-18-6-14 1q-3 8 5 13t9 7q5 11-8 19-29-16-53-35 11-2 17-6t7-15q0-4-2-8t-5-6-6-6-6-5q-14-14-21-25-3-4-7-21t-11-21q-12-7-16-1t-5 19v8t-1 3-4 2q-6 2-18-1-68-97-68-216z m493-72q-1-31 20-54 27-27 52-32 11-2 29 2t25 3q0-17-19-53-22-37-33-48-2-3-7-7t-7-6-5-7-4-6-1-8 2-9q1-2 4-9t3-8-1-9q-1-4-4-6t-6-4-7-3q-4-3-11-9t-13-9-12-8q116 38 190 138t74 224q0 12-2 36-4-5-5-12-2-17-2-21 0-3 1-14t0-18-4-12q-3-3-6-4t-8 2-7 6-7 7-7 5q-8 6-14 9t-13 6-15 2-15-4q-18-9-39-9-4 0-11 0t-13 1-11-1-10-4q1-11 8-20t17-10q5 0 7 2t5 4 5 5q7 5 23 4 1-26 0-31t-7-12-6-13q0-2-1-9t-2-11-4-7-7-9q-7-6-17-9t-17 3q-3 2-8 9t-9 11q-3 2-5 4t-5 5-4 5-4 5-4 7q-6 8-21 18t-19 14q-4-2-5-4t-1-8z" horiz-adv-x="937.5" />

<glyph glyph-name="b-twitter" unicode="&#xf099;" d="M904 622q-37-54-90-93 0-8 0-23 0-73-21-145t-64-139-103-117-144-82-181-30q-151 0-276 81 19-2 43-2 126 0 224 77-59 1-105 36t-64 89q19-3 34-3 24 0 48 6-63 13-104 62t-41 115v2q38-21 82-23-37 25-59 64t-22 86q0 49 25 91 68-83 164-133t208-55q-5 21-5 41 0 75 53 127t127 53q79 0 132-57 61 12 115 44-21-64-80-100 52 6 104 28z" horiz-adv-x="928.6" />

<glyph glyph-name="b-facebook" unicode="&#xf09a;" d="M535 843v-147h-87q-48 0-65-20t-17-60v-106h164l-22-165h-142v-424h-171v424h-142v165h142v122q0 104 58 161t155 57q82 0 127-7z" horiz-adv-x="571.4" />

<glyph glyph-name="b-github-circled" unicode="&#xf09b;" d="M429 779q116 0 215-58t156-156 57-215q0-140-82-252t-211-155q-15-3-22 4t-7 17q0 1 0 43t0 75q0 54-29 79 32 3 57 10t53 22 45 37 30 58 11 84q0 67-44 115 21 51-4 114-16 5-46-6t-51-25l-21-13q-52 15-107 15t-108-15q-8 6-23 15t-47 22-47 7q-25-63-5-114-44-48-44-115 0-47 12-83t29-59 45-37 52-22 57-10q-21-20-27-58-12-5-25-8t-32-3-36 12-31 35q-11 18-27 29t-28 14l-11 1q-12 0-16-2t-3-7 5-8 7-6l4-3q12-6 24-21t18-29l6-13q7-21 24-34t37-17 39-3 31 1l13 3q0-22 0-50t1-30q0-10-8-17t-22-4q-129 43-211 155t-82 252q0 117 58 215t155 156 216 58z m-267-616q2 4-3 7-6 1-8-1-1-4 4-7 5-3 7 1z m18-19q4 3-1 9-6 5-9 2-4-3 1-9 5-6 9-2z m16-25q6 4 0 11-4 7-9 3-5-3 0-10t9-4z m24-23q4 4-2 10-7 7-11 2-5-5 2-11 6-6 11-1z m32-14q1 6-8 9-8 2-10-4t7-9q8-3 11 4z m35-3q0 7-10 6-9 0-9-6 0-7 10-6 9 0 9 6z m32 5q-1 7-10 5-9-1-8-8t10-4 8 7z" horiz-adv-x="857.1" />

<glyph glyph-name="b-pinterest-circled" unicode="&#xf0d2;" d="M857 350q0-117-57-215t-156-156-215-58q-62 0-122 18 33 52 43 92 6 19 31 118 11-22 40-38t64-16q68 0 121 38t82 105 29 151q0 64-34 120t-96 90-142 36q-59 0-110-17t-86-43-61-61-37-72-12-75q0-58 22-102t66-62q16-7 21 11 1 4 4 17t5 17q3 13-6 24-29 34-29 84 0 84 58 145t153 61q84 0 132-46t47-119q0-95-39-161t-98-67q-34 0-54 25t-13 58q4 19 15 52t17 57 6 43q0 28-15 46t-43 18q-35 0-59-31t-24-80q0-40 14-68l-55-233q-9-39-7-99-115 51-186 157t-71 236q0 117 58 215t155 156 216 58 215-58 156-156 57-215z" horiz-adv-x="857.1" />

<glyph glyph-name="b-pinterest-squared" unicode="&#xf0d3;" d="M696 779q67 0 114-48t47-113v-536q0-66-47-113t-114-48h-404q47 68 60 118 5 19 30 116 11-21 41-37t63-16q101 0 164 83t64 208q0 47-19 91t-54 77-85 54-110 21q-58 0-109-16t-85-43-60-61-37-71-12-74q0-57 22-101t65-61q7-3 13 0t8 10q6 25 9 35 3 12-7 23-28 35-28 84 0 83 58 143t151 59q83 0 130-45t47-117q0-94-38-160t-97-66q-33 0-54 25t-13 57q5 19 15 52t16 57 6 42q0 27-14 45t-42 18q-34 0-58-31t-24-78q0-40 13-68l-54-231q-14-56-4-142h-102q-67 0-114 48t-47 113v536q0 66 47 113t114 48h535z" horiz-adv-x="857.1" />

<glyph glyph-name="b-linkedin" unicode="&#xf0e1;" d="M195 501v-553h-184v553h184z m12 171q0-41-29-68t-75-27h-1q-46 0-74 27t-28 68q0 41 29 68t75 27 74-27 29-68z m650-407v-317h-183v296q0 59-23 92t-71 33q-35 0-58-19t-36-48q-6-17-6-45v-309h-184q1 223 1 361t0 165l-1 27h184v-80h-1q11 18 23 31t31 29 49 24 64 9q95 0 153-63t58-186z" horiz-adv-x="857.1" />

<glyph glyph-name="b-github" unicode="&#xf113;" d="M357 171q0-22-7-45t-24-43-40-19-41 19-24 43-7 45 7 46 24 43 41 19 40-19 24-43 7-46z m357 0q0-22-7-45t-24-43-40-19-41 19-24 43-7 45 7 46 24 43 41 19 40-19 24-43 7-46z m90 0q0 67-39 114t-104 47q-23 0-109-12-40-6-88-6t-87 6q-85 12-109 12-66 0-104-47t-39-114q0-49 18-85t45-58 68-33 78-17 83-4h94q46 0 83 4t78 17 69 33 45 58 18 85z m125 99q0-116-34-185-22-43-59-74t-79-48-95-27-96-12-93-3q-43 0-79 2t-82 7-85 17-77 29-67 45-48 64q-35 69-35 185 0 132 76 221-15 45-15 95 0 64 28 121 61 0 106-22t106-69q82 20 172 20 83 0 157-18 58 46 104 67t105 22q29-57 29-121 0-49-15-94 76-89 76-222z" horiz-adv-x="928.6" />

<glyph glyph-name="b-youtube-squared" unicode="&#xf166;" d="M513 123v88q0 27-16 27-10 0-19-8v-125q9-9 19-9 16 0 16 27z m103 68h36v19q0 28-18 28t-18-28v-19z m-319 148v-39h-45v-236h-41v236h-44v39h130z m112-70v-205h-37v23q-22-25-43-25-18 0-23 15-3 10-3 30v162h36v-151q0-13 1-14 0-8 8-8 11 0 24 17v156h37z m141-62v-81q0-29-4-41-7-23-30-23-19 0-38 22v-20h-37v275h37v-89q18 22 38 22 23 0 30-24 4-11 4-41z m140-72v-5q0-16-1-24-2-12-9-22-15-22-44-22-29 0-46 21-11 15-11 48v72q0 33 11 48 16 21 45 21t43-21q12-16 12-48v-43h-74v-36q0-28 19-28 13 0 16 14 0 1 1 4t0 9v12h38z m-252 460v-87q0-28-18-28t-18 28v87q0 29 18 29t18-29z m298-398q0 99-11 145-6 25-24 41t-42 20q-76 8-230 8-154 0-230-8-24-3-42-20t-24-41q-11-48-11-145 0-98 11-145 5-24 24-41t42-19q76-9 230-9t230 9q24 2 42 19t23 41q12 47 12 145z m-422 363l50 166h-41l-29-109-29 109h-44q4-13 13-39l13-38q20-58 26-89v-112h41v112z m161-45v73q0 32-11 48-16 22-44 22-28 0-43-22-12-16-12-48v-73q0-32 12-48 15-22 43-22 28 0 44 22 11 15 11 48z m102-67h37v207h-37v-158q-13-17-24-17-8 0-9 8 0 2 0 15v152h-38v-164q0-20 4-30 6-16 24-16 20 0 43 26v-23z m280 170v-536q0-66-47-113t-114-48h-535q-67 0-114 48t-47 113v536q0 66 47 113t114 48h535q67 0 114-48t47-113z" horiz-adv-x="857.1" />

<glyph glyph-name="b-youtube" unicode="&#xf167;" d="M542 156v-118q0-37-22-37-13 0-25 12v168q12 12 25 12 22 0 22-37z m189-1v-25h-51v25q0 38 25 38t26-38z m-540 122h60v52h-174v-52h59v-318h55v318z m161-318h50v276h-50v-211q-17-23-32-23-10 0-11 11-1 2-1 20v203h-50v-218q0-28 5-41 7-21 32-21 27 0 57 34v-30z m240 83v110q0 41-5 55-10 31-40 31-28 0-52-30v121h-50v-370h50v27q25-31 52-31 30 0 40 31 5 15 5 56z m188 6v7h-51q0-29-1-34-4-20-22-20-26 0-26 38v49h100v57q0 44-15 65-22 28-59 28-38 0-60-28-15-21-15-65v-96q0-44 16-65 22-29 60-29 40 0 60 30 10 15 12 30 1 5 1 33z m-339 509v117q0 39-24 39t-24-39v-117q0-39 24-39t24 39z m401-419q0-131-14-195-8-33-33-56t-57-25q-102-12-309-12t-310 12q-32 3-57 25t-32 56q-15 62-15 195 0 131 15 195 7 33 32 56t57 26q103 11 310 11t309-11q33-4 58-26t32-56q14-62 14-195z m-557 712h57l-67-223v-151h-56v151q-8 42-34 119-21 57-37 104h60l39-147z m207-186v-97q0-46-16-66-21-29-59-29-37 0-59 29-15 21-15 66v97q0 45 15 66 22 28 59 28 38 0 59-28 16-21 16-66z m187 91v-279h-51v31q-30-35-58-35-25 0-33 21-4 13-4 42v220h51v-205q0-19 0-20 2-12 12-12 15 0 32 24v213h51z" horiz-adv-x="857.1" />

<glyph glyph-name="b-youtube-play" unicode="&#xf16a;" d="M397 221l270 139-270 141v-280z m103 481q94 0 181-3t128-5l41-2q0 0 9-1t13-2 13-2 16-5 16-7 17-11 16-15q4-3 9-10t16-33 15-56q4-36 7-76t3-64v-98q1-81-10-162-4-30-14-55t-18-35l-8-9q-7-8-16-15t-17-10-16-7-16-5-13-2-13-2-9-1q-140-11-350-11-115 2-201 4t-111 4l-28 3-20 2q-20 3-30 5t-29 12-31 23q-4 3-9 10t-16 33-15 56q-4 36-7 76t-3 64v98q-1 81 10 162 4 31 14 55t18 35l8 9q8 9 16 15t17 11 16 7 16 5 13 2 13 2 9 1q140 10 350 10z" horiz-adv-x="1000" />

<glyph glyph-name="b-dropbox" unicode="&#xf16b;" d="M224 456l276-171-191-159-273 178z m551-310v-60l-274-164v-1l0 1-1-1v1l-273 164v60l82-54 191 159v1l1-1 0 1v-1l192-159z m-466 638l191-159-276-169-188 150z m467-328l188-152-273-178-191 159z m-85 328l273-178-188-150-276 169z" horiz-adv-x="1000" />

<glyph glyph-name="b-instagram" unicode="&#xf16d;" d="M571 350q0 59-41 101t-101 42-101-42-42-101 42-101 101-42 101 42 41 101z m77 0q0-91-64-156t-155-64-156 64-64 156 64 156 156 64 155-64 64-156z m61 229q0-21-15-36t-37-15-36 15-15 36 15 36 36 15 37-15 15-36z m-280 123q-4 0-43 0t-59 0-54-2-57-5-40-11q-28-11-49-32t-33-49q-6-16-10-40t-6-58-1-53 0-59 0-43 0-43 0-59 1-53 6-58 10-40q12-28 33-49t49-32q16-6 40-11t57-5 54-2 59 0 43 0 42 0 59 0 54 2 58 5 39 11q28 11 50 32t32 49q6 16 10 40t6 58 1 53 0 59 0 43 0 43 0 59-1 53-6 58-10 40q-11 28-32 49t-50 32q-16 6-39 11t-58 5-54 2-59 0-42 0z m428-352q0-128-3-177-5-116-69-180t-179-69q-50-3-177-3t-177 3q-116 6-180 69t-69 180q-3 49-3 177t3 177q5 116 69 180t180 69q49 3 177 3t177-3q116-6 179-69t69-180q3-49 3-177z" horiz-adv-x="857.1" />

<glyph glyph-name="b-tumblr" unicode="&#xf173;" d="M527 108l44-132q-12-19-61-37t-99-18q-58-1-107 15t-79 41-53 59-31 67-9 66v304h-94v120q40 14 72 39t51 50 32 57 19 55 8 49q1 3 3 5t4 2h136v-237h186v-140h-186v-289q0-17 3-31t13-30 28-23 45-8q44 1 75 16z" horiz-adv-x="571.4" />

<glyph glyph-name="b-tumblr-squared" unicode="&#xf174;" d="M634 35l-35 102q-24-12-57-12-20-1-35 5t-21 18-10 23-3 24v222h144v108h-143v182h-105q-5 0-5-5-3-25-10-49t-22-53-43-53-66-38v-92h73v-233q0-32 12-64t36-62 68-48 98-17q39 0 76 14t48 28z m223 583v-536q0-66-47-113t-114-48h-535q-67 0-114 48t-47 113v536q0 66 47 113t114 48h535q67 0 114-48t47-113z" horiz-adv-x="857.1" />

<glyph glyph-name="b-skype" unicode="&#xf17e;" d="M655 257q0 28-11 51t-27 38-41 27-46 19-49 13l-58 14q-17 4-25 6t-19 6-17 9-9 12-4 16q0 43 80 43 24 0 43-6t30-16 21-19 23-16 27-7q26 0 42 18t16 43q0 31-32 55t-79 38-101 13q-38 0-74-9t-67-26-49-48-19-72q0-34 10-60t32-42 44-27 58-18l81-20q51-12 63-20 18-11 18-34 0-21-23-36t-58-14q-29 0-51 9t-37 22-25 25-26 21-30 9q-28 0-42-17t-14-41q0-52 68-88t162-37q41 0 78 10t69 30 49 52 19 74z m202-121q0-89-63-152t-151-63q-73 0-131 45-43-9-83-9-80 0-153 31t-126 84-83 125-31 153q0 41 9 84-45 58-45 130 0 89 63 152t151 63q73 0 131-45 43 9 84 9 79 0 152-31t126-84 84-125 30-153q0-41-8-84 44-58 44-130z" horiz-adv-x="857.1" />

<glyph glyph-name="b-foursquare" unicode="&#xf180;" d="M558 608l21 108q3 13-5 22t-20 10h-397q-13 0-22-10t-8-20v-615q0-4 3 0l162 196q13 15 22 19t26 4h134q12 0 20 8t11 17q13 72 20 106 2 12-6 23t-21 10h-164q-16 0-26 11t-11 27v23q0 16 11 27t26 10h193q10 0 20 7t11 17z m127 124q-9-41-30-149t-39-195-19-97q-4-12-5-18t-8-18-14-19-21-12-33-5h-151q-7 0-12-6-5-5-238-275-12-14-33-16t-27 3q-30 12-30 54v787q0 31 21 58t67 26h495q53 0 71-30t6-88z m0 0l-88-441q2 9 19 97t39 195 30 149z" horiz-adv-x="714.3" />

<glyph glyph-name="b-vimeo-squared" unicode="&#xf194;" d="M721 494q6 121-90 124-129 4-174-146 25 11 46 11 47 0 41-54-2-32-41-93t-59-61q-24 0-46 94-7 30-25 142-16 106-89 99-33-4-91-56l-46-40-45-40 29-37q43 29 49 29 32 0 59-100 9-31 26-92t25-92q38-100 91-100 88 0 214 164 123 158 126 248z m136 124v-536q0-66-47-113t-114-48h-535q-67 0-114 48t-47 113v536q0 66 47 113t114 48h535q67 0 114-48t47-113z" horiz-adv-x="857.1" />

<glyph glyph-name="b-wordpress" unicode="&#xf19a;" d="M71 350q0 91 37 175l205-561q-109 53-176 157t-66 229z m719 22q0-11-2-22t-5-27-7-25-9-33-10-32l-43-143-155 461q26 2 49 4 11 2 15 11t-2 17-15 8l-115-6q-42 1-113 6-6 0-11-3t-6-9-1-10 5-9 11-5l44-4 67-183-94-281-156 464q26 2 49 4 11 2 15 11t-2 17-15 8l-115-6q-4 0-13 0t-14 1q58 89 153 141t205 52q82 0 157-29t133-84h-6q-31 0-51-22t-21-53q0-7 1-14t2-12 5-13 5-11 7-13 7-12 8-13 8-13q35-60 35-118z m-283-59l133-361q0-4 2-7-70-24-142-24-62 0-121 18z m369 243q53-97 53-206 0-117-58-215t-156-156l132 379q33 94 33 154 0 23-4 44z m-376 294q102 0 194-40t160-106 106-160 40-194-40-194-106-160-160-106-194-40-194 40-160 106-106 160-40 194 40 194 106 160 160 106 194 40z m0-977q97 0 185 38t152 102 102 152 38 185-38 185-102 152-152 102-185 38-185-38-152-102-102-152-38-185 38-185 102-152 152-102 185-38z" horiz-adv-x="1000" />

<glyph glyph-name="b-yahoo" unicode="&#xf19e;" d="M479 316l8-395q-35 7-59 7-23 0-59-7l8 395q-23 39-94 165t-121 209-101 160q32-8 60-8 25 0 62 8 35-62 75-128t93-154 77-127q21 34 61 99t66 106 58 98 60 106q30-8 60-8 31 0 63 8-15-22-33-49t-28-44-31-54-28-47q-81-138-197-340z" horiz-adv-x="857.1" />

<glyph glyph-name="b-reddit" unicode="&#xf1a1;" d="M611 199q9-9 0-17-34-35-111-35t-111 35q-9 8 0 17 3 3 8 3t9-3q27-28 94-28 67 0 94 28 4 3 9 3t8-3z m-171 101q0-21-15-35t-35-15-35 15-15 35q0 21 15 36t35 14 35-15 15-35z m220 0q0-21-15-35t-35-15-35 15-15 35 15 35 35 15 35-14 15-36z m140 67q0 27-19 47t-48 19-48-20q-72 50-173 54l35 158 112-26q0-20 14-35t35-14 36 15 14 35-14 35-36 15q-30 0-44-28l-124 28q-10 3-14-9l-38-174q-101-4-173-54-19 20-48 20-28 0-48-19t-19-47q0-20 10-36t28-24q-4-16-4-32 0-79 79-135t188-57q110 0 188 57t78 135q0 18-4 32 17 8 27 24t10 36z m200-17q0-102-40-194t-106-160-160-106-194-40-194 40-160 106-106 160-40 194 40 194 106 160 160 106 194 40 194-40 160-106 106-160 40-194z" horiz-adv-x="1000" />

<glyph glyph-name="b-reddit-squared" unicode="&#xf1a2;" d="M524 220q7-7 0-14-30-30-95-30t-96 30q-7 7 0 14 3 3 7 3t8-3q23-23 81-23t81 23q2 3 7 3t7-3z m-147 87q0-17-13-30t-30-13-30 13-13 30q0 18 13 30t30 13 31-13 12-30z m189 0q0-17-13-30t-30-13-30 13-13 30q0 18 13 30t30 13 30-13 13-30z m120 58q0 23-17 40t-41 16q-23 0-40-17-63 44-149 46l30 136 95-22q1-18 13-30t30-13q18 0 31 13t12 30-12 31-31 12q-27 0-38-24l-106 24q-9 3-11-8l-34-149q-86-3-148-46-17 17-41 17-24 0-41-16t-17-40q0-17 9-31t24-21q-3-14-3-27 0-68 67-116t161-49q95 0 162 49t67 116q0 14-3 27 14 7 22 21t9 31z m171 253v-536q0-66-47-113t-114-48h-535q-67 0-114 48t-47 113v536q0 66 47 113t114 48h535q67 0 114-48t47-113z" horiz-adv-x="857.1" />

<glyph glyph-name="language" unicode="&#xf1ab;" d="M365 248q-1-1-7 1t-18 6l-11 5q-24 11-48 28-4 2-23 17t-21 16q-38-57-75-101-45-53-59-61-2-1-11-3t-10 0q3 3 46 52 12 13 48 64t43 66q10 17 29 55t20 43q-5 1-61-18-5-2-16-5t-19-5-10-3q-1-1-1-6t0-5q-3-5-18-8-12-4-26 0-10 2-15 11-3 4-3 13 3 1 13 3t17 3q32 9 59 18 55 20 56 20 6 1 24 11t25 12q5 1 12 4t8 3 3 0q2-7 0-18 0-2-7-16t-15-29-9-19q-14-28-43-73l35-16q7-3 42-18t38-15q2-1 5-14t3-18z m-114 272q1-9-3-16-6-13-28-21-16-7-33-7-15 2-27 15-8 8-10 23l0 1q2-1 11-3t15 0 32 9q20 7 31 8 9 0 12-9z m389-72l35-127-77 23z m-618-447l387 130v576l-387-130v-576z m692 177l57-17-101 367-56 17-120-299 57-18 25 62 118-36z m-280 537l319-103v212z m173-738l88-8-30-89-22 37q-73-46-154-60-32-7-51-7h-47q-44 0-111 22t-102 47q-5 4-5 9 0 5 3 8t7 3q2 0 10-5t17-9 12-6q40-21 89-34t87-14q54 0 94 8t87 28q9 4 17 9t19 11 16 9z m250 602v-602l-432 137q-8-3-209-71t-205-68q-8 0-10 7 0 1-1 2v602q2 5 2 5 3 3 11 6 60 20 84 28v214l311-110q1 0 90 31t176 60 90 30q11 0 11-12v-233z" horiz-adv-x="857.1" />

<glyph glyph-name="b-spotify-1" unicode="&#xf1bc;" d="M629 175q0 18-17 28-107 64-249 64-74 0-160-19-24-5-24-29 0-11 8-19t20-8q2 0 20 5 74 15 136 15 126 0 221-58 11-6 19-6 10 0 18 8t8 19z m54 120q0 22-20 34-132 79-306 79-85 0-169-24-27-7-27-36 0-14 10-23t24-10q4 0 20 4 69 19 141 19 155 0 272-69 13-8 21-8 14 0 24 10t10 24z m60 138q0 26-23 39-70 41-163 62t-191 21q-114 0-204-26-12-4-21-15t-9-27q0-17 12-29t28-11q7 0 23 4 74 21 171 21 89 0 173-19t141-53q12-7 23-7 16 0 28 11t12 29z m114-83q0-117-57-215t-156-156-215-58-216 58-155 156-58 215 58 215 155 156 216 58 215-58 156-156 57-215z" horiz-adv-x="857.1" />

<glyph glyph-name="b-soundcloud" unicode="&#xf1be;" d="M438 84l8 135-8 292q-1 5-5 9t-9 4q-5 0-9-4t-4-9l-7-292 7-135q1-5 5-9t8-3q12 0 14 12z m165 17l6 117-7 327q0 9-7 14-5 3-9 3t-9-3q-7-5-7-14l-1-3-5-323q0-1 6-132v0q0-6 3-10 5-6 13-6 6 0 11 5 5 4 5 11z m-583 189l11-71-11-70q-2-5-5-5t-5 5l-10 70 10 71q1 5 5 5t5-5z m48 44l14-115-14-113q-2-5-6-5-5 0-5 5l-13 113 13 115q0 5 5 5 4 0 6-5z m156-252z m-105 274l14-137-14-132q0-6-6-6-6 0-7 6l-12 132 12 137q1 6 7 6 6 0 6-6z m52 4l13-141-13-136q-1-8-7-8-8 0-8 8l-11 136 11 141q0 7 8 7 6 0 7-7z m53-11l12-130-12-137q-1-9-9-9-3 0-6 2t-2 7l-12 137 12 130q0 4 2 6t6 3q8 0 9-9z m214-265z m-162 347l12-212-12-137q0-4-3-7t-6-3q-9 0-10 10l-10 137 10 212q1 10 10 10 4 0 6-3t3-7z m53 48l10-261-10-136q0-5-3-8t-8-3q-10 0-11 11l-9 136 9 261q1 11 11 11 5 0 8-4t3-7z m54 22l10-282-10-135q-1-12-12-12-10 0-12 12l-9 135 9 282q0 5 4 9t8 4q5 0 9-4t3-9z m219-414z m-110 417l8-285-8-133q0-6-5-10t-9-4-10 3-4 11l-8 133 8 285q0 6 4 10t10 3 9-3 5-10z m55-11l8-275-8-131q0-6-5-11t-10-4-11 4-5 11l-6 131 6 275q1 7 5 11t11 5 10-5 5-11z m118-275l-8-129q0-7-5-12t-12-5-12 5-6 12l-3 64-3 65 6 355v2q1 8 7 13 5 4 11 4 5 0 8-3 8-4 9-14z m621 11q0-65-47-111t-111-46h-439q-7 1-12 6t-5 12v502q0 13 16 18 47 19 101 19 108 0 188-73t89-181q30 12 62 12 65 0 111-46t47-112z" horiz-adv-x="1285.7" />

<glyph glyph-name="b-vine" unicode="&#xf1ca;" d="M835 389v-111q-56-13-110-13-36-76-92-151t-102-120-71-60q-45-25-91 2-15 9-33 24t-48 47-57 72-60 102-59 136-51 176-39 218h158q14-122 39-223t58-177 68-131 78-109q94 94 160 227-79 40-124 122t-45 186q0 107 58 176t158 68q99 0 152-59t53-166q0-89-32-159-4-1-11-2t-25-1-36 3-34 14-28 29q17 58 17 103 0 48-16 73t-44 26q-30 0-48-28t-18-78q0-104 59-164t149-60q35 0 67 8z" horiz-adv-x="857.1" />

<glyph glyph-name="b-yelp" unicode="&#xf1e9;" d="M431 114v-71q0-163-3-170-7-18-28-22-31-6-102 21t-90 49q-8 9-10 20 0 7 2 15 3 6 19 26t101 121q1 0 34 39 8 11 22 14t28-2q13-6 20-17t7-23z m-83 140q-1-31-29-39l-67-22q-153-49-163-49-19 1-30 20-6 14-9 42-5 42 0 93t17 69 31 18q8 0 113-43 40-16 64-26l47-19q13-5 20-17t6-27z m461-166q-4-30-51-90t-75-70q-21-8-36 3-7 6-102 161l-27 43q-7 11-6 25t11 26q19 24 46 14 1 0 67-22 113-37 135-44t26-12q16-12 12-34z m-375 353q3-57-30-68-32-10-64 40l-210 333q-5 20 10 35 23 24 116 50t125 17q23-5 28-25 1-10 12-170t13-212z m370-60q1-22-15-33-8-6-183-48-38-9-51-13l0 1q-13-3-25 2t-21 18q-17 26 0 49 1 0 42 57 70 95 84 114t19 21q15 11 36 1 27-12 68-74t46-94v-1z" horiz-adv-x="857.1" />

<glyph glyph-name="b-lastfm" unicode="&#xf202;" d="M721 457q0-3 6-23 5-16 14-27t22-19 25-11 31-10q181-50 181-185 0-81-59-135t-142-54q-33 0-62 10t-51 26-43 41-35 49-30 58-24 57-22 60-20 53q-18 45-35 74t-41 54-58 36-79 11q-53 0-102-31t-77-81-28-103q0-89 59-156t147-67q99 0 144 53 31 36 46 65l47-85q-8-19-24-39l0 0q-73-85-216-85-82 0-151 44t-106 116-38 153q0 59 24 115t65 98 96 68 114 26q49 0 89-11t69-28 53-44 40-56 33-65 28-69 28-73 31-71q53-112 130-112 45 0 77 27t32 72q0 24-11 40t-28 26-40 18-47 15-49 19-45 29-37 45-21 69q-2 9-2 18 0 62 49 107t111 44q43-2 67-8t50-30h0q6-6 13-14t14-20 11-15l-72-55q-15 27-30 39v0q-13 12-55 12-27 0-46-18t-20-47z" horiz-adv-x="1000" />

<glyph glyph-name="b-lastfm-squared" unicode="&#xf203;" d="M799 263q0 97-130 133-20 6-30 10t-21 14-16 25q0 2-2 5t-1 7-1 4q0 20 14 33t34 13q30 0 39-8h0q11-8 22-28l51 39q-21 30-27 36-18 16-38 22t-47 5q-45 0-80-32t-34-77q0-3 1-12 9-54 36-79t83-40q16-5 27-9t25-12 22-19 7-26v-3q1-32-22-52t-56-19q-55 0-94 80-12 26-28 68t-27 70-30 62-42 53-57 34-82 13q-57 0-107-31t-81-83-28-107v0q3-61 28-111t75-83 109-31q104 0 156 61 11 15 17 29l-33 61q-24-45-55-65t-82-20q-64 0-106 48t-43 114q0 59 46 106t104 46q62 0 95-29t58-97q4-11 14-38t16-43 17-41 22-41 25-35 31-30 37-19 45-7q59 0 102 39t42 97z m58 355v-536q0-66-47-113t-114-48h-535q-67 0-114 48t-47 113v536q0 66 47 113t114 48h535q67 0 114-48t47-113z" horiz-adv-x="857.1" />

<glyph glyph-name="b-pinterest" unicode="&#xf231;" d="M0 517q0 60 21 113t58 93 85 69 103 44 113 14q88 0 164-37t123-108 47-160q0-54-10-105t-34-99-56-83-80-58-106-21q-38 0-75 18t-54 49q-5-22-15-63t-14-53-11-40-15-39-17-35-26-44-35-48l-7-3-5 6q-9 88-9 105 0 51 12 115t37 161 29 113q-18 36-18 94 0 47 29 87t74 41q34 0 53-23t19-57q0-37-24-106t-25-105q0-35 25-58t61-23q31 0 57 14t44 38 31 53 21 61 11 62 4 56q0 96-61 150t-160 54q-111 0-186-72t-75-183q0-25 7-48t15-36 15-26 7-17q0-15-8-40t-21-25q-1 0-9 1-29 9-51 31t-34 53-18 60-6 60z" horiz-adv-x="714.3" />

<glyph glyph-name="b-whatsapp" unicode="&#xf232;" d="M550 307q7 0 54-25t50-30q1-2 1-8 0-18-9-42-9-22-40-37t-57-15q-32 0-106 35-55 25-95 66t-82 103q-41 60-40 108v5q2 50 41 88 14 12 29 12 4 0 10-1t11-1q11 0 15-3t8-16q5-11 19-49t14-41q0-12-19-33t-20-26q0-3 3-8 19-41 57-76 31-30 84-57 7-4 13-4 8 0 30 27t29 28z m-114-296q71 0 136 28t112 74 75 112 28 136-28 136-75 112-112 75-136 28-135-28-112-75-75-112-28-136q0-113 67-205l-44-130 135 43q88-58 192-58z m0 771q86 0 164-34t134-89 90-135 33-163-33-163-90-134-134-90-164-34q-108 0-203 53l-233-75 76 226q-60 99-60 217 0 86 33 163t90 135 134 89 163 34z" horiz-adv-x="857.1" />

<glyph glyph-name="b-vimeo" unicode="&#xf27d;" d="M954 561q-6-132-186-363-185-241-313-241-79 0-134 147-25 89-74 269-40 146-87 146-10 0-71-42l-43 54q13 12 60 54t73 65q87 77 134 81 53 5 85-31t46-113q24-160 37-208 30-139 66-139 29 0 86 89 57 90 61 138 8 77-61 77-31 0-67-14 67 219 256 213 140-5 132-182z" horiz-adv-x="1000" />

<glyph glyph-name="b-reddit-alien" unicode="&#xf281;" d="M1000 378q0-32-16-59t-45-40q7-26 7-54 0-86-60-160t-162-117-223-42-223 42-162 117-59 160q0 26 6 53-28 13-46 41t-17 59q0 46 32 78t79 33q48 0 81-35 122 85 287 90l65 291q2 7 9 12t14 2l206-45q10 21 30 33t44 13q35 0 59-24t25-59-25-59-59-25-59 24-24 59l-186 42-58-264q167-5 289-89 33 34 80 34 46 0 79-33t32-78z m-767-111q0-35 25-59t58-25 60 25 24 59-24 59-60 24q-34 0-58-25t-25-58z m452-198q6 6 6 14t-6 15q-5 5-14 5t-14-5q-23-24-68-35t-89-11-89 11-68 35q-6 5-14 5t-14-5q-6-6-6-14t6-15q24-24 66-38t68-17 51-2 51 2 68 17 66 38z m-1 114q34 0 59 25t24 59q0 34-25 58t-58 25q-35 0-60-24t-24-59 24-59 60-25z" horiz-adv-x="1000" />

<glyph glyph-name="b-telegram" unicode="&#xf2c6;" d="M664 121l82 386q5 25-6 36t-29 3l-482-185q-16-6-22-14t-2-15 18-11l124-38 286 180q12 8 18 3 4-3-3-8l-231-210-9-127q13 0 25 13l60 58 125-93q36-20 46 22z m336 229q0-102-40-194t-106-160-160-106-194-40-194 40-160 106-106 160-40 194 40 194 106 160 160 106 194 40 194-40 160-106 106-160 40-194z" horiz-adv-x="1000" />

<glyph glyph-name="b-github-squared" unicode="&#xf300;" d="M290 180q2 4-2 8-5 4-8 1-2-4 2-7 5-4 8-2z m-16 23q-3 4-7 3-3-3 0-7 4-5 7-3 3 2 0 7z m-23 23q1 2-3 4-4 1-4-1-2-3 2-5 5-1 5 2z m12-13q1 0 1 2t-2 3q-4 4-6 2t1-6q3-3 6-1z m48-42q1 4-5 6-5 2-7-2-2-4 5-6 5-2 7 2z m23-2q0 5-6 5-6 0-6-5t6-4 6 4z m22 4q-1 4-7 3t-5-5q1-5 6-3t6 5z m358 177q0 118-83 202t-202 84-202-84-84-202q0-93 55-168t140-103q10-2 15 3t5 11q0 29-1 53-3-1-8-2t-20-1-27 3-24 11-17 23q-13 33-32 41-1 1-2 2l-5 5t-3 5 2 4 11 2q3 0 8-1t17-9 18-20q9-15 21-23t24-8 22 2 16 5q4 27 19 39-28 3-48 10t-41 22-31 42-11 67q0 44 30 77-14 34 3 75 10 4 30-4t34-16l14-9q33 9 72 9t71-9q6 4 16 10t31 14 32 5q16-41 3-75 29-33 29-77 0-32-8-56t-20-39-29-25-35-14-38-7q19-17 19-53 0-22 0-50t-1-28q0-7 5-11t15-3q86 29 141 103t54 168z m143 268v-536q0-66-47-113t-114-48h-535q-67 0-114 48t-47 113v536q0 66 47 113t114 48h535q67 0 114-48t47-113z" horiz-adv-x="857.1" />

<glyph glyph-name="b-flickr" unicode="&#xf303;" d="M196 150q-80 0-138 59t-58 141q0 84 57 142t139 58 139-58 57-142q0-82-58-141t-138-59z m508 0q-80 0-138 59t-58 141q0 84 57 142t139 58 139-58 57-142q0-82-58-141t-138-59z" horiz-adv-x="900" />

<glyph glyph-name="b-flickr-circled" unicode="&#xf304;" d="M480 830q200 0 340-140t140-340q0-198-140-339t-340-141q-198 0-339 141t-141 339q0 200 141 340t339 140z m-128-580q40 0 70 30t30 70q0 42-30 72t-70 30-70-30-30-72q0-40 30-70t70-30z m256 0q42 0 71 30t29 70q0 42-29 72t-71 30q-40 0-69-30t-29-72q0-40 29-70t69-30z" horiz-adv-x="960" />

<glyph glyph-name="b-vimeo-circled" unicode="&#xf307;" d="M480 830q200 0 340-140t140-340q0-198-140-339t-340-141q-198 0-339 141t-141 339q0 200 141 340t339 140z m220-386q14 82-48 94-60 14-110-40-28-28-34-66 38 24 56-1t-2-63q-44-84-64-84-14 0-36 94-4 14-8 40t-8 45-12 39-20 29-30 5q-26-6-60-32t-56-50l-20-24 18-24q4 4 10 8t22 10 20-2q6-8 37-113t39-121q14-28 38-43t58 1q54 36 124 120t86 178z" horiz-adv-x="960" />

<glyph glyph-name="b-twitter-circled" unicode="&#xf30a;" d="M480 830q200 0 340-140t140-340q0-198-140-339t-340-141q-198 0-339 141t-141 339q0 200 141 340t339 140z m196-392q30 22 46 48-32-12-54-14 30 18 42 52-30-16-60-22-28 28-70 28-40 0-67-28t-27-66q0-2 1-10t1-12q-120 6-194 100-14-24-14-48 0-50 44-78-26 0-44 12l0-2q0-34 21-60t55-32q-16-4-24-4-12 0-18 2 20-66 88-66-50-40-118-40l-22 0q68-42 144-42 122 0 196 83t74 187l0 12z" horiz-adv-x="960" />

<glyph glyph-name="b-linkedin-squared" unicode="&#xf30c;" d="M132 61h129v387h-129v-387z m138 507q-1 29-21 48t-51 19-53-19-21-48q0-29 20-48t52-19h0q33 0 53 19t21 48z m326-507h129v222q0 86-41 130t-107 44q-76 0-117-65h1v56h-129q2-37 0-387h129v217q0 21 4 31 8 19 25 33t41 14q65 0 65-88v-207z m261 557v-536q0-66-47-113t-114-48h-535q-67 0-114 48t-47 113v536q0 66 47 113t114 48h535q67 0 114-48t47-113z" horiz-adv-x="857.1" />

<glyph glyph-name="b-spotify" unicode="&#xf327;" d="M440 790q182 0 311-129t129-311q0-110-51-205t-139-157q-100 170-310 176-162 6-272-104-108 124-108 290 0 184 128 312t312 128z m214-596q16 22-8 38-172 106-422 48-26-8-20-32 6-26 32-22 228 54 382-40 22-14 36 8z m54 124q18 30-12 48-100 62-235 77t-251-19q-32-10-24-44 12-32 42-22 104 32 225 18t209-68q28-20 46 10z m4 130q34-20 56 14 20 34-14 56-116 68-288 82t-282-24q-14-4-22-19t-4-31q10-38 50-28 94 34 249 22t255-72z m-336-414q120-6 172-110-64-14-108-14-114 0-214 56 58 72 150 68z" horiz-adv-x="880" />

<glyph glyph-name="b-instagram-1" unicode="&#xf32d;" d="M690 350q0 26-6 50l176 0 0-344q0-56-39-96t-95-40l-592 0q-56 0-95 40t-39 96l0 344 174 0q-4-32-4-50 0-106 76-183t184-77q106 0 183 77t77 183z m36 430q56 0 95-39t39-95l0-146-218 0q-78 110-212 110-138 0-212-110l-218 0 0 146q0 56 39 95t95 39l592 0z m64-166l0 72q0 24-24 24l-72 0q-24 0-24-24l0-72q0-8 7-16t17-8l72 0q24 0 24 24z m-200-264q0-66-47-113t-113-47-113 47-47 113q0 68 47 114t113 46 113-46 47-114z" horiz-adv-x="860" />

<glyph glyph-name="b-evernote" unicode="&#xf333;" d="M750 636q0-4 5-73t9-144-1-171-19-171-51-126-91-51q-154 0-194 26-26 20-18 130 2 40 37 59t69 19l34-2-4-70q-12-2-38-2-20 0-24-26-4-38 40-42l86 4q38 4 28 136-2 16-18 26t-34 13-49 8-47 9q-28 8-46 28t-27 37-11 17-8-58-30-58q-44 0-139 15t-115 35q-34 34-62 149t-28 151q0 34 58 30l116 0q78 0 78 72 0 12-1 52t-1 60q0 82 40 82 90 0 120-14 18-8 29-26t13-34l4-14 202-12q10 0 25-3t39-19 24-42z m-96-302q6 6-2 32t-29 52-49 26-45-23-21-46 0-29q8-6 15-5t26 5 31 4q14 0 31-6t28-10 15 0z m-482 308q0-22-28-22l-144 0 176 172q-4-138-4-150z" horiz-adv-x="766" />

<glyph glyph-name="b-soundcloud-1" unicode="&#xf348;" d="M34 178q0-4-10-4-6 0-10 4l-14 70 14 72q4 4 10 4 10 0 10-4l16-72z m102-38q0-8-12-8t-12 8l-12 108 12 166q0 8 12 8t12-8l14-166z m102 2q0-10-14-10t-14 8l-10 108 10 222q0 10 14 10t14-10l12-222z m102 0q0-10-16-10t-16 10l-8 106 8 224q0 10 16 10t16-10l10-224z m102 2q0-12-18-12-16 0-18 12l-6 104 6 256q4 14 18 14 18 0 18-14l8-256z m72-12q-14 0-14 14l0 396q0 10 12 14 36 14 84 14 88 0 153-58t73-142q24 10 50 10 52 0 90-37t38-87q0-52-38-89t-90-37z" horiz-adv-x="1000" />
</font>
</defs>
</svg>
